<?xml version="1.0" standalone="no"?>
<!DOCTYPE svg PUBLIC "-//W3C//DTD SVG 1.1//EN" "http://www.w3.org/Graphics/SVG/1.1/DTD/svg11.dtd" >
<svg xmlns="http://www.w3.org/2000/svg" xmlns:xlink="http://www.w3.org/1999/xlink" version="1.1">
<metadata>
Created by Christoph Koeberlin (http://christoph.koe.berlin)
Copyright (c) 2018 Swiss Typefaces Sarl. All rights reserved.
</metadata>
<defs>
<font id="Font" horiz-adv-x="0" >
  <font-face 
    font-family="Font"
    font-weight="300"
    font-stretch="normal"
    units-per-em="1000"
    panose-1="2 11 3 4 0 0 0 0 0 0"
    ascent="800"
    descent="-200"
    x-height="500"
    cap-height="710"
    bbox="-346 -1767 1577 934"
    underline-thickness="60"
    underline-position="-120"
    unicode-range="U+000D-FEFF"
  />
<missing-glyph horiz-adv-x="500" 
d="M0 710h500v-710h-500v710zM250 371l216 320h-432zM19 28l221 327l-221 327v-654zM481 28v654l-220 -327zM466 19l-216 320l-216 -320h432z" />
    <glyph glyph-name="uni0407_uni0407.liga" unicode="&#x407;&#x407;" horiz-adv-x="546" 
d="M99 710h74v-710h-74v710zM373 710h74v-710h-74v710zM43 788q-23 0 -39.5 15.5t-16.5 40.5q0 23 16.5 39t39.5 16t39.5 -16t16.5 -39q0 -24 -16.5 -40t-39.5 -16zM274 788q-23 0 -39.5 15.5t-16.5 40.5q0 23 16.5 39t39.5 16t39.5 -16t16.5 -39q0 -24 -16.5 -40t-39.5 -16
zM505 788q-23 0 -39.5 15.5t-16.5 40.5q0 23 16.5 39t39.5 16t39.5 -16t16.5 -39q0 -24 -16.5 -40t-39.5 -16z" />
    <glyph glyph-name="uni0457_uni0457.liga" unicode="&#x457;&#x457;" horiz-adv-x="458" 
d="M79 500h70v-500h-70v500zM309 500h70v-500h-70v500zM21 576q-23 0 -39.5 15.5t-16.5 40.5q0 23 16.5 39t39.5 16t39.5 -16t16.5 -39q0 -24 -16.5 -40t-39.5 -16zM229 576q-23 0 -39.5 15.5t-16.5 40.5q0 23 16.5 39t39.5 16t39.5 -16t16.5 -39q0 -24 -16.5 -40t-39.5 -16
zM437 576q-23 0 -39.5 15.5t-16.5 40.5q0 23 16.5 39t39.5 16t39.5 -16t16.5 -39q0 -24 -16.5 -40t-39.5 -16z" />
    <glyph glyph-name="uni0457_uni0458.liga" unicode="&#x457;&#x458;" horiz-adv-x="458" 
d="M21 576q-23 0 -39.5 15.5t-16.5 40.5q0 23 16.5 39t39.5 16t39.5 -16t16.5 -39q0 -24 -16.5 -40t-39.5 -16zM229 576q-23 0 -39.5 15.5t-16.5 40.5q0 23 16.5 39t39.5 16t39.5 -16t16.5 -39q0 -24 -16.5 -40t-39.5 -16zM437 576q-23 0 -39.5 15.5t-16.5 40.5
q0 23 16.5 39t39.5 16t39.5 -16t16.5 -39q0 -24 -16.5 -40t-39.5 -16zM79 500h70v-500h-70v500zM202 -120h25q48 0 65 23.5t17 69.5v527h70v-541q0 -72 -37 -107.5t-109 -35.5h-31v64z" />
    <glyph glyph-name=".notdef" horiz-adv-x="500" 
d="M0 710h500v-710h-500v710zM250 371l216 320h-432zM19 28l221 327l-221 327v-654zM481 28v654l-220 -327zM466 19l-216 320l-216 -320h432z" />
    <glyph glyph-name="glyph1" 
 />
    <glyph glyph-name="uni000D" unicode="&#xd;" horiz-adv-x="258" 
 />
    <glyph glyph-name="space" unicode=" " horiz-adv-x="258" 
 />
    <glyph glyph-name="exclam" unicode="!" horiz-adv-x="258" 
d="M94 416v294h71v-294l-14 -205h-44zM128 -8q-27 0 -46 19.5t-19 46.5q0 18 9 33.5t24 23.5h66q14 -8 23.5 -23.5t9.5 -33.5q0 -27 -19.5 -46.5t-47.5 -19.5z" />
    <glyph glyph-name="quotedbl" unicode="&#x22;" horiz-adv-x="404" 
d="M69 710h64v-240h-64v240zM271 710h64v-240h-64v240z" />
    <glyph glyph-name="numbersign" unicode="#" horiz-adv-x="741" 
d="M98 0l65 206h-128v60h146l59 185h-130v60h149l62 199h64l-62 -199h193l62 199h64l-62 -199h127v-60h-146l-58 -185h130v-60h-148l-65 -206h-64l64 206h-192l-65 -206h-65zM438 266l59 185h-193l-58 -185h192z" />
    <glyph glyph-name="dollar" unicode="$" horiz-adv-x="516" 
d="M226 -6q-69 7 -117.5 37.5t-74.5 68.5l52 44q26 -36 70 -61.5t99 -25.5q71 0 111.5 33t40.5 87q0 26 -9 46t-26 36.5t-41 30.5t-53 28l-68 32q-80 38 -115 84t-35 111q0 32 12 60.5t33.5 51t52 38t68.5 20.5v83h68v-83q57 -6 94 -30t63 -55l-49 -45q-27 34 -61 51t-81 17
q-27 0 -51 -8t-42 -22t-28.5 -33.5t-10.5 -43.5q0 -45 28 -74.5t88 -57.5l67 -32q36 -17 66.5 -36t53 -42.5t35 -53t12.5 -66.5q0 -35 -11.5 -67t-34 -57.5t-57.5 -42.5t-81 -22v-83h-68v82z" />
    <glyph glyph-name="percent" unicode="%" horiz-adv-x="428" 
d="M212 438q-29 0 -54.5 11t-45 29.5t-30.5 44t-11 55.5t11 55t30.5 44t45 29.5t54.5 10.5q30 0 56 -10.5t45.5 -29.5t30.5 -44t11 -55t-11 -55.5t-30.5 -44t-45.5 -29.5t-56 -11zM212 492q38 0 61.5 25t23.5 61q0 35 -23.5 60t-61.5 25q-36 0 -59.5 -25t-23.5 -60
q0 -36 23.5 -61t59.5 -25zM77 384h278v-60h-278v60zM212 -7q-29 0 -54.5 10.5t-45 29.5t-30.5 44t-11 55t11 55.5t30.5 44t45 29.5t54.5 11q30 0 56 -11t45.5 -29.5t30.5 -44t11 -55.5t-11 -55t-30.5 -44t-45.5 -29.5t-56 -10.5zM212 47q38 0 61.5 25t23.5 60q0 36 -23.5 61
t-61.5 25q-36 0 -59.5 -25t-23.5 -61q0 -35 23.5 -60t59.5 -25z" />
    <glyph glyph-name="ampersand" unicode="&#x26;" horiz-adv-x="613" 
d="M252 -8q-49 0 -90 17.5t-71 47.5t-47 70.5t-17 87.5q0 46 17 86.5t47 71t71 48t90 17.5q17 0 31.5 -3t31.5 -9l-148 284h354v-64h-246l339 -646h-77l-80 151q-22 -75 -76 -117t-129 -42zM252 57q33 0 61.5 12t49.5 33t32.5 50t11.5 63q0 33 -11.5 62t-32 50.5t-49 33.5
t-62.5 12q-33 0 -61.5 -12t-49.5 -33t-32.5 -50t-11.5 -63t11.5 -63t32.5 -50t49.5 -33t61.5 -12z" />
    <glyph glyph-name="quotesingle" unicode="'" horiz-adv-x="202" 
d="M69 710h64v-240h-64v240z" />
    <glyph glyph-name="parenleft" unicode="(" horiz-adv-x="251" 
d="M213.987 -112q-50.9971 107 -74.4961 205q-23.498 98 -23.498 208t23.498 208q23.499 98 74.4961 205l-55.9971 24q-26.998 -56 -46.9971 -107t-32.498 -102.5t-18.999 -107q-6.49902 -55.5 -6.49902 -120.5t6.49902 -120.5q6.5 -55.5 18.999 -107t32.498 -102.5
t46.9971 -107z" />
    <glyph glyph-name="parenright" unicode=")" horiz-adv-x="251" 
d="M37 -112q51 107 74.5 205t23.5 208t-23.5 208t-74.5 205l56 24q27 -56 47 -107t32.5 -102.5t19 -107t6.5 -120.5t-6.5 -120.5t-19 -107t-32.5 -102.5t-47 -107z" />
    <glyph glyph-name="asterisk" unicode="*" horiz-adv-x="432" 
d="M92 421l79 107l-127 43l16 54l129 -44v129h54v-128l129 42l17 -53l-128 -42l79 -107l-44 -33l-80 108l-78 -107z" />
    <glyph glyph-name="plus" unicode="+" horiz-adv-x="590" 
d="M76 303h190v183h59v-183h189v-58h-189v-188h-59v188h-190v58z" />
    <glyph glyph-name="comma" unicode="," horiz-adv-x="252" 
d="M118 0h-46v112h108v-113l-56 -139h-50z" />
    <glyph glyph-name="hyphen" unicode="-" horiz-adv-x="375" 
d="M68 309h239v-72h-239v72z" />
    <glyph glyph-name="period" unicode="." horiz-adv-x="242" 
d="M122 -8q-28 0 -47 19.5t-19 46.5q0 28 19.5 47.5t46.5 19.5q26 0 45.5 -19.5t19.5 -47.5q0 -27 -19 -46.5t-46 -19.5z" />
    <glyph glyph-name="slash" unicode="/" horiz-adv-x="465" 
d="M372 710h67l-345 -710h-67z" />
    <glyph glyph-name="zero" unicode="0" horiz-adv-x="828" 
d="M414 -8q-76 0 -142.5 28t-115.5 77t-77.5 115t-28.5 143q0 76 28.5 142.5t77.5 115.5t115.5 77t142.5 28t142.5 -28t115.5 -77t77.5 -115.5t28.5 -142.5q0 -77 -28.5 -143t-77.5 -115t-115.5 -77t-142.5 -28zM414 57q63 0 116.5 23t92.5 63t61.5 94.5t22.5 117.5
t-22.5 117.5t-61.5 94.5t-92.5 63t-116.5 23t-116.5 -23t-92.5 -63t-61 -94.5t-22 -117.5t22 -117.5t61 -94.5t92.5 -63t116.5 -23z" />
    <glyph glyph-name="one" unicode="1" horiz-adv-x="265" 
d="M96 648l70 70v-718h-70v648z" />
    <glyph glyph-name="two" unicode="2" horiz-adv-x="538" 
d="M317 315q-31 -10 -53 -10q-44 1 -81.5 17t-64.5 44t-42 65t-15 79q0 44 16 82t44.5 66t67 44t82.5 16t82.5 -16t67 -44t45 -66t16.5 -82q0 -31 -7 -59t-21.5 -56.5t-37.5 -58.5t-54 -64l-187 -207h310v-65h-457zM271 366q30 0 56 11t45 30.5t29.5 45.5t10.5 57
q0 30 -10.5 56.5t-29.5 45.5t-45 30t-56 11q-31 0 -57 -11t-44.5 -30t-29 -45.5t-10.5 -56.5q0 -31 10.5 -57t29 -45.5t44.5 -30.5t57 -11z" />
    <glyph glyph-name="three" unicode="3" horiz-adv-x="519" 
d="M233 -8q-63 0 -116.5 28t-83.5 76l54 41q20 -35 58.5 -57.5t86.5 -22.5q35 0 65.5 11.5t53 33t35.5 52t13 68.5t-12.5 69t-35.5 53t-55 34t-70 12h-58l156 255h-263v65h373l-160 -262q48 -8 85 -29t61.5 -51t37 -67.5t12.5 -78.5q0 -50 -17.5 -92t-48.5 -72.5t-75 -48
t-96 -17.5z" />
    <glyph glyph-name="four" unicode="4" horiz-adv-x="623" 
d="M419 199h-408l477 519v-454h95v-65h-95v-199h-69v199zM419 264v291l-265 -291h265z" />
    <glyph glyph-name="five" unicode="5" horiz-adv-x="524" 
d="M249 -8q-64 0 -118 28t-84 76l54 42q20 -35 58.5 -58t87.5 -23q35 0 65.5 12t52.5 33.5t34.5 51.5t12.5 67t-12.5 68t-34.5 53t-53 34.5t-68 12.5q-40 0 -69 -16.5t-47 -35.5l-49 22v351h353v-65h-283v-215q26 12 51 17t47 5q54 0 97.5 -17.5t74.5 -48.5t47.5 -73.5
t16.5 -91.5t-17 -91t-48 -72.5t-74 -48t-95 -17.5z" />
    <glyph glyph-name="six" unicode="6" horiz-adv-x="541" 
d="M277 -8q-49 0 -91.5 18t-73.5 49t-49 72.5t-18 89.5q0 35 11 67.5t28 61.5l217 360h81l-165 -272q19 8 33.5 10t30.5 2q47 0 89 -18t73 -49t49 -73t18 -89q0 -48 -18 -89.5t-49 -72.5t-74 -49t-92 -18zM277 57q36 0 66 13t51 35t33 52t12 64t-12 64t-33 52.5t-51 35.5
t-66 13q-35 0 -64.5 -13t-51 -35.5t-33.5 -52.5t-12 -64t12 -64t33.5 -52t51 -35t64.5 -13z" />
    <glyph glyph-name="seven" unicode="7" horiz-adv-x="496" 
d="M388 645h-357v65h463l-349 -710h-75z" />
    <glyph glyph-name="eight" unicode="8" horiz-adv-x="550" 
d="M275 -8q-48 0 -89 17.5t-72 48t-48.5 72t-17.5 89.5q0 66 33 118.5t87 80.5q-29 22 -46.5 55.5t-17.5 74.5q0 37 13.5 68t36.5 53.5t54 35.5t67 13q35 0 66 -13t54 -35.5t36.5 -53.5t13.5 -68q0 -41 -17 -74.5t-46 -55.5q54 -28 87 -80.5t33 -118.5q0 -48 -18 -89.5
t-48.5 -72t-72 -48t-88.5 -17.5zM275 652q-42 0 -71.5 -29.5t-29.5 -74.5q0 -22 8 -41t21.5 -32.5t32 -21.5t39.5 -8t39.5 8t32 21.5t21.5 32.5t8 41q0 45 -29.5 74.5t-71.5 29.5zM275 58q33 0 61 12.5t48.5 34t32.5 51t12 63.5t-12 63t-32.5 50.5t-48.5 34t-61 12.5
t-61.5 -12.5t-49 -34t-32.5 -50.5t-12 -63t12 -63.5t32.5 -51t49 -34t61.5 -12.5z" />
    <glyph glyph-name="nine" unicode="9" horiz-adv-x="541" 
d="M325 271q-19 -8 -33.5 -10t-31.5 -2q-47 0 -89 18t-73 49t-49 73t-18 89q0 48 18 89.5t49.5 73t74 49.5t91.5 18t91.5 -18t74 -49.5t49 -73t17.5 -89.5q0 -35 -11 -67.5t-28 -60.5l-217 -361h-80zM264 324q36 0 65.5 13t50.5 35t33 52t12 64t-12 64t-33 52.5t-50.5 35.5
t-65.5 13t-65.5 -13t-50.5 -35.5t-33 -52.5t-12 -64t12 -64t33 -52t50.5 -35t65.5 -13z" />
    <glyph glyph-name="colon" unicode=":" horiz-adv-x="267" 
d="M134 375q-28 0 -47 19.5t-19 46.5q0 28 19.5 47.5t46.5 19.5q26 0 45.5 -19.5t19.5 -47.5q0 -27 -19 -46.5t-46 -19.5zM134 -8q-28 0 -47 19.5t-19 46.5q0 28 19.5 47.5t46.5 19.5q26 0 45.5 -19.5t19.5 -47.5q0 -27 -19 -46.5t-46 -19.5z" />
    <glyph glyph-name="semicolon" unicode=";" horiz-adv-x="269" 
d="M136 375q-28 0 -47 19.5t-19 46.5q0 28 19.5 47.5t46.5 19.5q26 0 45.5 -19.5t19.5 -47.5q0 -27 -19 -46.5t-46 -19.5zM125 0h-46v112h108v-113l-56 -139h-50z" />
    <glyph glyph-name="less" unicode="&#x3c;" horiz-adv-x="590" 
d="M125 265l289 273l42 -43l-246 -230l246 -231l-42 -42z" />
    <glyph glyph-name="equal" unicode="=" horiz-adv-x="590" 
d="M72 415h446v-58h-446v58zM72 191h446v-57h-446v57z" />
    <glyph glyph-name="greater" unicode="&#x3e;" horiz-adv-x="590" 
d="M134 34l246 231l-246 230l42 43l289 -273l-289 -273z" />
    <glyph glyph-name="question" unicode="?" horiz-adv-x="508" 
d="M183 365h57q32 0 59 11t46.5 30t30 45.5t10.5 57.5t-10.5 57t-29.5 45.5t-45 30.5t-56 11t-56 -11t-44.5 -30.5t-29 -45.5t-10.5 -57h-70q0 44 16.5 82.5t45 66.5t66.5 44t82 16q43 0 81.5 -16t67 -44t45 -66.5t16.5 -82.5t-16.5 -82.5t-45.5 -66.5t-68.5 -44t-85.5 -16
h-56v65zM242 -8q-27 0 -46 19.5t-19 46.5q0 18 9 33.5t24 23.5h66q14 -8 23 -23.5t9 -33.5q0 -27 -19 -46.5t-47 -19.5z" />
    <glyph glyph-name="at" unicode="@" horiz-adv-x="810" 
d="M397 -8q-81 0 -146 26.5t-110.5 73.5t-70 110t-24.5 137q0 84 31.5 153.5t85 120t124.5 78t150 27.5q74 0 136.5 -22t108 -62.5t71 -98t25.5 -129.5q0 -63 -15.5 -109t-40.5 -76t-57 -44t-65 -14q-32 0 -58 15t-39 41q-24 -23 -57.5 -38.5t-78.5 -15.5q-37 0 -66 13.5
t-49.5 37t-31.5 54t-11 65.5q0 45 16.5 85.5t45.5 70.5t68.5 47.5t86.5 17.5q38 0 66.5 -12t48.5 -32l7 31h59l-51 -241q-8 -37 5.5 -61t47.5 -24q22 0 42 12.5t36 37t25.5 60t9.5 81.5q0 61 -22 109t-60.5 81t-91 50.5t-113.5 17.5q-69 0 -129 -24t-105 -67t-71 -103
t-26 -133q0 -62 20 -115.5t58 -92.5t92 -61.5t123 -22.5q48 0 97 10t91 31l21 -52q-47 -21 -103 -32.5t-106 -11.5zM272 341q0 -56 29.5 -88.5t79.5 -32.5q32 0 63 15t48 44l3 16l33 154q-18 27 -47 39.5t-59 12.5t-57.5 -12t-48 -33.5t-32.5 -51t-12 -63.5z" />
    <glyph glyph-name="A" unicode="A" horiz-adv-x="675" 
d="M338 718l342 -718h-79l-94 201h-338l-94 -201h-80zM475 269l-137 290l-137 -290h274z" />
    <glyph glyph-name="B" unicode="B" horiz-adv-x="630" 
d="M99 710h232q51 0 89.5 -14.5t64.5 -39.5t39 -58.5t13 -70.5q0 -56 -22 -92.5t-62 -59.5q28 -9 52 -23.5t41.5 -36.5t27.5 -51.5t10 -66.5q0 -48 -17.5 -85t-49 -61.5t-75.5 -37.5t-98 -13h-245v710zM331 397q63 0 97 35t34 88q0 25 -9 47t-25.5 38.5t-41 26.5t-55.5 10
h-158v-245h158zM353 68q78 0 117 36t39 96q0 57 -38 95t-118 38h-180v-265h180z" />
    <glyph glyph-name="C" unicode="C" horiz-adv-x="721" 
d="M410 -8q-76 0 -142 27.5t-115 76.5t-77 115.5t-28 143.5t28 143.5t77 115t115 76.5t142 28q46 0 87.5 -10t77.5 -28t65.5 -42t49.5 -51l-53 -46q-37 48 -95.5 77.5t-131.5 29.5q-61 0 -113.5 -22.5t-90.5 -62t-60 -93t-22 -115.5t22 -115.5t60 -92.5t90.5 -61.5
t113.5 -22.5q73 0 131.5 29.5t95.5 77.5l53 -47q-20 -27 -49.5 -51t-65.5 -42t-77.5 -28t-87.5 -10z" />
    <glyph glyph-name="D" unicode="D" horiz-adv-x="735" 
d="M99 710h208q83 0 152.5 -27t120 -74.5t79 -112.5t28.5 -141q0 -77 -28.5 -142t-79 -112t-120 -74t-152.5 -27h-208v710zM307 69q69 0 125 21.5t96 59.5t62 90.5t22 114.5q0 61 -22 113.5t-62 91t-96 60t-125 21.5h-134v-572h134z" />
    <glyph glyph-name="E" unicode="E" horiz-adv-x="553" 
d="M99 710h405v-71h-331v-239h271v-72h-271v-257h331v-71h-405v710z" />
    <glyph glyph-name="F" unicode="F" horiz-adv-x="516" 
d="M99 710h395v-72h-321v-238h253v-72h-253v-328h-74v710z" />
    <glyph glyph-name="G" unicode="G" horiz-adv-x="743" 
d="M411 -8q-77 0 -143 27.5t-115 76.5t-77 115.5t-28 143.5t28 143.5t76.5 115t114.5 76.5t143 28q41 0 79.5 -8.5t73 -23.5t63 -36t49.5 -45l-53 -48q-37 41 -90.5 65.5t-121.5 24.5q-61 0 -113.5 -22.5t-91 -61.5t-60.5 -92.5t-22 -115.5t22 -115.5t60.5 -92.5t91 -61.5
t114.5 -22.5q63 0 114.5 17.5t80.5 42.5v205h-227l32 72h269v-312q-17 -18 -44 -35.5t-62 -31t-76.5 -21.5t-86.5 -8z" />
    <glyph glyph-name="H" unicode="H" horiz-adv-x="764" 
d="M99 710h74v-310h418v310h74v-710h-74v328h-418v-328h-74v710z" />
    <glyph glyph-name="I" unicode="I" horiz-adv-x="272" 
d="M99 710h74v-710h-74v710z" />
    <glyph glyph-name="J" unicode="J" horiz-adv-x="523" 
d="M226 -8q-42 0 -79.5 13t-65 39t-43.5 63.5t-16 87.5h74q0 -66 36.5 -99t93.5 -33q58 0 94.5 33t36.5 99v515h74v-519q0 -50 -16.5 -87.5t-44.5 -62t-65 -37t-79 -12.5z" />
    <glyph glyph-name="K" unicode="K" horiz-adv-x="626" 
d="M99 710h74v-359l339 359h92l-341 -360l371 -350h-100l-361 339v-339h-74v710z" />
    <glyph glyph-name="L" unicode="L" horiz-adv-x="515" 
d="M99 710h74v-638h325v-72h-399v710z" />
    <glyph glyph-name="M" unicode="M" horiz-adv-x="881" 
d="M99 718l342 -388l341 388v-718h-74v534l-267 -309l-268 309v-534h-74v718z" />
    <glyph glyph-name="N" unicode="N" horiz-adv-x="788" 
d="M173 543v-543h-74v718l516 -551v543h74v-718z" />
    <glyph glyph-name="O" unicode="O" horiz-adv-x="822" 
d="M411 -8q-77 0 -143 27.5t-115 76.5t-77 115.5t-28 143.5t28 143.5t77 115t115 76.5t143 28q76 0 142.5 -28t115.5 -76.5t77 -115t28 -143.5t-28 -143.5t-77 -115.5t-115.5 -76.5t-142.5 -27.5zM411 64q61 0 113.5 22.5t90.5 61.5t60 92t22 115t-22 115t-60 92t-90.5 61.5
t-113.5 22.5q-62 0 -114 -22.5t-90.5 -61.5t-60 -92t-21.5 -115t21.5 -115t60 -92t90.5 -61.5t114 -22.5z" />
    <glyph glyph-name="P" unicode="P" horiz-adv-x="571" 
d="M99 710h200q56 0 100.5 -15t75 -42.5t47 -66.5t16.5 -86t-16.5 -86t-47 -66.5t-75 -43t-100.5 -15.5h-126v-289h-74v710zM298 358q81 0 122.5 38t41.5 104q0 65 -41.5 103.5t-122.5 38.5h-125v-284h125z" />
    <glyph glyph-name="Q" unicode="Q" horiz-adv-x="841" 
d="M411 -8q-77 0 -143 27.5t-115 76.5t-77 115.5t-28 143.5t28 143.5t77 115t115 76.5t143 28q76 0 142.5 -28t115.5 -76.5t77 -115t28 -143.5q0 -66 -20 -123t-56 -103l91 -86l-47 -51l-93 86q-48 -41 -108.5 -63.5t-129.5 -22.5zM411 64q54 0 100.5 17t83.5 48l-93 88
l48 51l93 -88q26 36 40 80t14 95q0 62 -22 115t-60 92t-90.5 61.5t-113.5 22.5q-62 0 -114 -22.5t-90.5 -61.5t-60 -92t-21.5 -115t21.5 -115t60 -92t90.5 -61.5t114 -22.5z" />
    <glyph glyph-name="R" unicode="R" horiz-adv-x="612" 
d="M99 710h205q106 0 165 -53.5t59 -141.5q0 -33 -9.5 -64t-30.5 -57t-55 -44.5t-82 -25.5l255 -324h-90l-250 320h-93v-320h-74v710zM301 386q75 0 113 34t38 93q0 60 -38 94.5t-113 34.5h-128v-256h128z" />
    <glyph glyph-name="S" unicode="S" horiz-adv-x="524" 
d="M260 -8q-37 0 -70.5 8.5t-62.5 23.5t-52 34.5t-39 41.5l57 49q26 -35 69.5 -60.5t97.5 -25.5q69 0 109 30t40 84q0 52 -34 84.5t-93 58.5l-68 29q-81 35 -116.5 83t-35.5 113q0 39 17 71t45 54.5t65 35t76 12.5q59 0 108 -23t84 -65l-53 -52q-27 34 -61 51.5t-81 17.5
q-25 0 -48 -7t-40 -20t-27.5 -32.5t-10.5 -43.5q0 -43 25.5 -74t86.5 -58l68 -29q36 -16 66.5 -35t53 -43t35 -54t12.5 -67q0 -42 -15 -77.5t-44 -61t-70.5 -39.5t-93.5 -14z" />
    <glyph glyph-name="T" unicode="T" horiz-adv-x="517" 
d="M221 638h-206v72h487v-72h-207v-638h-74v638z" />
    <glyph glyph-name="U" unicode="U" horiz-adv-x="736" 
d="M368 -8q-62 0 -113 18.5t-88 54t-57 87t-20 116.5v442h74v-445q0 -50 14.5 -88t41.5 -63.5t64.5 -38t83.5 -12.5t83.5 12.5t64.5 38t41.5 63.5t14.5 88v445h74v-442q0 -65 -20 -116.5t-56.5 -87t-88 -54t-113.5 -18.5z" />
    <glyph glyph-name="V" unicode="V" horiz-adv-x="653" 
d="M3 710h81l243 -548l242 548h81l-323 -718z" />
    <glyph glyph-name="W" unicode="W" horiz-adv-x="885" 
d="M12 710h76l165 -518l189 526l190 -526l165 518h76l-236 -718l-194 538l-195 -538z" />
    <glyph glyph-name="X" unicode="X" horiz-adv-x="631" 
d="M269 364l-247 346h85l208 -290l208 290h85l-245 -346l261 -364h-84l-224 309l-223 -309h-87z" />
    <glyph glyph-name="Y" unicode="Y" horiz-adv-x="616" 
d="M271 301l-260 409h86l211 -337l211 337h86l-260 -409v-301h-74v301z" />
    <glyph glyph-name="Z" unicode="Z" horiz-adv-x="584" 
d="M426 638h-372v72h499l-417 -638h419v-72h-547z" />
    <glyph glyph-name="bracketleft" unicode="[" horiz-adv-x="295" 
d="M267.983 -135v59h-110.993v752h110.993v59h-175.989v-870h175.989z" />
    <glyph glyph-name="backslash" unicode="\" horiz-adv-x="465" 
d="M26 710h66l346 -710h-67z" />
    <glyph glyph-name="bracketright" unicode="]" horiz-adv-x="295" 
d="M27 -135v59h111v752h-111v59h176v-870h-176z" />
    <glyph glyph-name="asciicircum" unicode="^" horiz-adv-x="610" 
d="M305 714l271 -393h-70l-201 289l-201 -289h-70z" />
    <glyph glyph-name="underscore" unicode="_" horiz-adv-x="551" 
d="M64 0h423v-60h-423v60z" />
    <glyph glyph-name="grave" unicode="`" 
d="M-103 710h88l90 -160h-59z" />
    <glyph glyph-name="a" unicode="a" horiz-adv-x="618" 
d="M469 58q-32 -32 -75.5 -49t-93.5 -17q-56 0 -103 20t-81 55t-53 82t-19 101t19 101t53 82t81 55t103 20q50 0 93.5 -17t75.5 -49v58h70v-500h-70v58zM301 58q57 0 100 24t68 62v212q-24 38 -67.5 62t-100.5 24q-41 0 -74.5 -15t-58.5 -41t-38.5 -61t-13.5 -75t13.5 -75
t38.5 -61t58.5 -41t74.5 -15z" />
    <glyph glyph-name="b" unicode="b" horiz-adv-x="618" 
d="M79 710h70v-268q32 32 75 49t94 17q56 0 103 -20t81 -55t53 -82t19 -101t-19 -101t-53 -82t-81 -55t-103 -20q-51 0 -94 17t-75 49v-58h-70v710zM317 442q-57 0 -101 -24t-67 -62v-212q23 -38 67 -62t101 -24q40 0 74 15t58.5 41t38.5 61t14 75t-14 75t-38.5 61t-58.5 41
t-74 15z" />
    <glyph glyph-name="c" unicode="c" horiz-adv-x="521" 
d="M301 -8q-56 0 -103 20t-81.5 55t-53.5 82t-19 101t19 101t53.5 82t81.5 55t103 20q61 0 108.5 -22t81.5 -56l-45 -49q-26 26 -62 43.5t-83 17.5q-41 0 -74.5 -15t-58.5 -41t-38.5 -61t-13.5 -75t13.5 -75t38.5 -61t58.5 -41t74.5 -15q47 0 83 17.5t62 43.5l45 -49
q-34 -34 -81.5 -56t-108.5 -22z" />
    <glyph glyph-name="d" unicode="d" horiz-adv-x="618" 
d="M469 0v58q-32 -32 -75 -49t-94 -17q-56 0 -103 20t-81 55t-53 82t-19 101t19 101t53 82t81 55t103 20q51 0 94 -17t75 -49v268h70v-710h-70zM301 442q-41 0 -74.5 -15t-58.5 -41t-38.5 -61t-13.5 -75t13.5 -75t38.5 -61t58.5 -41t74.5 -15q57 0 100.5 24t67.5 62v212
q-24 38 -67.5 62t-100.5 24z" />
    <glyph glyph-name="e" unicode="e" horiz-adv-x="573" 
d="M301 -8q-56 0 -103 20t-81.5 55t-53.5 82t-19 101t19 101t53 82t79.5 55t98.5 20q55 0 100 -20t76.5 -56t48.5 -86t17 -110h-421q3 -40 18.5 -72.5t40.5 -56t57.5 -36.5t69.5 -13q50 0 89.5 18.5t65.5 44.5l45 -49q-33 -34 -84.5 -57t-115.5 -23zM290 443q-28 0 -55.5 -9
t-50.5 -27.5t-40 -45.5t-24 -63h337q-9 72 -55 109t-112 36z" />
    <glyph glyph-name="f" unicode="f" horiz-adv-x="339" 
d="M117 436h-97v64h95q-20 16 -31 39.5t-11 50.5q0 52 39 86t106 34h107v-64h-99q-37 0 -61 -18t-24 -53t24 -54t56 -21h105v-64h-139v-436h-70v436z" />
    <glyph glyph-name="g" unicode="g" horiz-adv-x="611" 
d="M292 -194q-56 0 -113 16.5t-99 46.5l38 59q32 -25 78.5 -41t97.5 -16q37 0 70.5 8t58 25t39 43.5t14.5 63.5q0 17 -3.5 37t-10.5 34q-32 -32 -75 -50t-95 -18q-55 0 -100.5 19t-78 52t-50.5 78t-18 98q0 52 18 97.5t50.5 78.5t78 52t100.5 19q51 0 93 -17t74 -49v58h70
v-393q20 -52 20 -103q0 -54 -22.5 -91.5t-58.5 -61.5t-82 -34.5t-94 -10.5zM294 80q56 0 99 24t66 62v190q-23 38 -66 62t-99 24q-39 0 -71.5 -14t-56 -38t-36.5 -57t-13 -72t13 -72t36.5 -57t56 -38t71.5 -14z" />
    <glyph glyph-name="h" unicode="h" horiz-adv-x="579" 
d="M79 710h70v-279q28 39 70.5 58t92.5 19q44 0 80 -14.5t61.5 -41t39.5 -64t14 -83.5v-305h-70v300q0 63 -36.5 102.5t-102.5 39.5q-57 0 -95.5 -30.5t-53.5 -82.5v-329h-70v710z" />
    <glyph glyph-name="i" unicode="i" horiz-adv-x="228" 
d="M79 500h70v-500h-70v500zM79 619q-20 17 -20 43q0 23 16 39.5t39 16.5t39 -16.5t16 -39.5q0 -26 -20 -43h-70z" />
    <glyph glyph-name="j" unicode="j" horiz-adv-x="236" 
d="M-20 -120h25q48 0 65 23.5t17 69.5v527h70v-541q0 -72 -37 -107.5t-109 -35.5h-31v64zM87 619q-20 17 -20 43q0 23 16 39.5t39 16.5t39 -16.5t16 -39.5q0 -26 -20 -43h-70z" />
    <glyph glyph-name="k" unicode="k" horiz-adv-x="502" 
d="M79 710h70v-441l239 231h93l-247 -237l274 -263h-96l-263 251v-251h-70v710z" />
    <glyph glyph-name="l" unicode="l" horiz-adv-x="228" 
d="M79 710h70v-710h-70v710z" />
    <glyph glyph-name="m" unicode="m" horiz-adv-x="879" 
d="M408 300q0 61 -32 101.5t-94 40.5q-48 0 -82 -27.5t-51 -77.5v-337h-70v500h70v-66q27 38 65.5 56t82.5 18q59 0 97.5 -25.5t58.5 -65.5q27 45 72 68t97 23q88 0 136.5 -55t48.5 -148v-305h-70v300q0 61 -32 101.5t-93 40.5q-47 0 -82.5 -27t-52.5 -85q1 -6 1 -13v-317
h-70v300z" />
    <glyph glyph-name="n" unicode="n" horiz-adv-x="579" 
d="M79 500h70v-69q28 39 70.5 58t92.5 19q44 0 80 -14.5t61.5 -41t39.5 -64t14 -83.5v-305h-70v300q0 63 -36.5 102.5t-102.5 39.5q-57 0 -95.5 -30.5t-53.5 -82.5v-329h-70v500z" />
    <glyph glyph-name="o" unicode="o" horiz-adv-x="606" 
d="M303 -8q-57 0 -104.5 20t-82 55t-53.5 82t-19 101t19 101t53.5 82t82 55t104.5 20t104.5 -20t82 -55t53.5 -82t19 -101t-19 -101t-53.5 -82t-82 -55t-104.5 -20zM303 58q42 0 76 15t59 41t38.5 61t13.5 75t-13.5 75t-38.5 61t-59 41t-76 15q-41 0 -75.5 -15t-59.5 -41
t-38.5 -61t-13.5 -75t13.5 -75t38.5 -61t59.5 -41t75.5 -15z" />
    <glyph glyph-name="p" unicode="p" horiz-adv-x="618" 
d="M149 500v-58q32 32 75 49t94 17q56 0 103 -20t81 -55t53 -82t19 -101t-19 -101t-53 -82t-81 -55t-103 -20q-51 0 -94 17t-75 49v-242h-70v684h70zM317 58q40 0 74 15t58.5 41t38.5 61t14 75t-14 75t-38.5 61t-58.5 41t-74 15q-57 0 -101 -24t-67 -62v-212q23 -38 67 -62
t101 -24z" />
    <glyph glyph-name="q" unicode="q" horiz-adv-x="618" 
d="M539 -184h-70v242q-32 -32 -75 -49t-94 -17q-56 0 -103 20t-81 55t-53 82t-19 101t19 101t53 82t81 55t103 20q51 0 94 -17t75 -49v58h70v-684zM301 58q57 0 100.5 24t67.5 62v212q-24 38 -67.5 62t-100.5 24q-41 0 -74.5 -15t-58.5 -41t-38.5 -61t-13.5 -75t13.5 -75
t38.5 -61t58.5 -41t74.5 -15z" />
    <glyph glyph-name="r" unicode="r" horiz-adv-x="345" 
d="M79 500h70v-68q24 35 61 54.5t85 19.5q17 0 34 -3v-73q-10 3 -21 4t-23 1q-48 0 -84 -24t-52 -68v-343h-70v500z" />
    <glyph glyph-name="s" unicode="s" horiz-adv-x="415" 
d="M206 -8q-60 0 -104 27.5t-70 75.5l56 37q20 -37 48 -57t72 -20q43 0 71.5 20t28.5 54q0 35 -23 54.5t-70 36.5l-42 16q-65 24 -90.5 61t-25.5 82q0 28 11 51.5t31 40.5t48 27t61 10q48 0 85.5 -21.5t59.5 -63.5l-56 -32q-12 25 -33.5 39.5t-55.5 14.5q-35 0 -58.5 -17.5
t-23.5 -47.5q0 -28 17.5 -48t63.5 -37l44 -16q63 -23 95 -58t32 -90q0 -29 -12 -54.5t-34 -44t-54 -29.5t-72 -11z" />
    <glyph glyph-name="t" unicode="t" horiz-adv-x="350" 
d="M257 0q-72 0 -109 35.5t-37 107.5v293h-87l-16 64h103v115l70 35v-150h150l-16 -64h-134v-279q0 -47 17.5 -70t66.5 -23h57v-64h-65z" />
    <glyph glyph-name="u" unicode="u" horiz-adv-x="578" 
d="M429 68q-29 -39 -71 -57.5t-91 -18.5q-45 0 -81 14.5t-61.5 41t-39 64t-13.5 83.5v305h70v-300q0 -63 36.5 -102.5t101.5 -39.5q57 0 94.5 29.5t54.5 80.5v332h70v-500h-70v68z" />
    <glyph glyph-name="v" unicode="v" horiz-adv-x="517" 
d="M-2 500h79l181 -369l182 369h79l-261 -508z" />
    <glyph glyph-name="w" unicode="w" horiz-adv-x="709" 
d="M12 500h73l124 -386l146 394l146 -394l123 386h73l-163 -501h-53l-126 341l-125 -341h-54z" />
    <glyph glyph-name="x" unicode="x" horiz-adv-x="509" 
d="M212 255l-190 245h81l152 -195l152 195h80l-190 -245l201 -255h-82l-161 206l-162 -206h-82z" />
    <glyph glyph-name="y" unicode="y" horiz-adv-x="507" 
d="M218 34l-212 466h76l172 -389l174 389h76l-313 -684h-75z" />
    <glyph glyph-name="z" unicode="z" horiz-adv-x="484" 
d="M331 436h-282v64h407l-314 -436h304v-64h-430z" />
    <glyph glyph-name="braceleft" unicode="{" horiz-adv-x="303" 
d="M270.983 -135v59h-29.998q-44.9971 0 -58.4961 21q-13.5 21 -13.5 66v177q0 47 -10.499 72.5t-42.4971 39.5q31.998 14 42.4971 39.5t10.499 72.5v177q0 45 13.5 66q13.499 21 57.4961 21h30.998v59h-38.9971q-70.9961 0 -98.9941 -36q-27.999 -36 -27.999 -106v-187
q0 -35 -10.999 -56t-49.9971 -21h-11.999v-58h11.999q38.998 0 49.9971 -21t10.999 -57v-186q0 -71 28.499 -106.5q28.498 -35.5 99.4932 -35.5h37.998z" />
    <glyph glyph-name="bar" unicode="|" horiz-adv-x="248" 
d="M92 710h64v-894h-64v894z" />
    <glyph glyph-name="braceright" unicode="}" horiz-adv-x="302" 
d="M31 -135v59h30q45 0 58.5 21t13.5 66v177q0 47 10.5 72.5t42.5 39.5q-32 14 -42.5 39.5t-10.5 72.5v177q0 45 -13.5 66t-57.5 21h-31v59h39q71 0 99 -36t28 -106v-187q0 -35 11 -56t50 -21h12v-58h-12q-39 0 -50 -21t-11 -57v-186q0 -71 -28.5 -106.5t-99.5 -35.5h-38z
" />
    <glyph glyph-name="asciitilde" unicode="~" horiz-adv-x="590" 
d="M87 281l108 73l198 -74l112 74v-67l-108 -75l-199 75l-111 -76v70z" />
    <glyph glyph-name="uni00A0" unicode="&#xa0;" horiz-adv-x="258" 
 />
    <glyph glyph-name="exclamdown" unicode="&#xa1;" horiz-adv-x="244" 
d="M121 508q28 0 47.5 -19.5t19.5 -46.5q0 -18 -9.5 -33.5t-23.5 -23.5h-66q-15 8 -24 23.5t-9 33.5q0 27 19 46.5t46 19.5zM144 289l14 -204v-269h-71v269l13 204h44z" />
    <glyph glyph-name="cent" unicode="&#xa2;" horiz-adv-x="535" 
d="M268 -4q-49 6 -90 28t-70 55.5t-45.5 77.5t-16.5 94q0 49 16.5 93t45.5 78t70 56t90 28v82h68v-81q49 -6 88.5 -26.5t68.5 -49.5l-45 -49q-26 26 -62 43.5t-83 17.5q-41 0 -74.5 -15t-58.5 -41t-38.5 -61t-13.5 -75t13.5 -75t38.5 -61t58.5 -41t74.5 -15q47 0 83 17.5
t62 43.5l45 -49q-29 -29 -68.5 -50t-88.5 -26v-83h-68v84z" />
    <glyph glyph-name="sterling" unicode="&#xa3;" horiz-adv-x="570" 
d="M53 65h104v250h-104v61h104q-29 25 -46.5 61.5t-17.5 78.5t15.5 78.5t42.5 64t65 43.5t83 16q44 0 82 -16t65.5 -44t43 -65t15.5 -80h-71q0 29 -10 54.5t-27.5 44.5t-42.5 30t-55 11t-55 -10.5t-43 -28.5t-28 -43t-10 -55q0 -29 10 -54.5t28 -44.5t43 -30t55 -11h86v-61
h-158v-250h307v-65h-481v65z" />
    <glyph glyph-name="currency" unicode="&#xa4;" horiz-adv-x="648" 
d="M562 348q0 -38 -11 -74.5t-35 -68.5l67 -66l-45 -45l-67 67q-34 -26 -73.5 -38.5t-73.5 -12.5t-73.5 12.5t-73.5 38.5l-67 -67l-45 45l67 67q-24 32 -35 68t-11 74q0 37 11 73t35 68l-67 68l45 44l67 -67q34 26 73.5 38.5t73.5 12.5t73.5 -12.5t73.5 -38.5l67 67l45 -44
l-67 -67q24 -32 35 -68.5t11 -73.5zM493 348q0 37 -12.5 68.5t-35 54.5t-53.5 36t-68 13t-68 -13t-53.5 -36t-35 -54.5t-12.5 -68.5t12.5 -68.5t35 -55t53.5 -36.5t68 -13t68 13t53.5 36.5t35 55t12.5 68.5z" />
    <glyph glyph-name="yen" unicode="&#xa5;" horiz-adv-x="647" 
d="M128 339h135l-236 371h86l211 -337l211 337h86l-236 -371h134v-61h-158v-75h158v-61h-158v-142h-74v142h-159v61h159v75h-159v61z" />
    <glyph glyph-name="brokenbar" unicode="&#xa6;" horiz-adv-x="248" 
d="M92 710h64v-383h-64v383zM92 200h64v-384h-64v384z" />
    <glyph glyph-name="section" unicode="&#xa7;" horiz-adv-x="456" 
d="M238 -200q-54 0 -96.5 26.5t-62.5 74.5l51 28q17 -34 45 -52.5t63 -18.5q39 0 68.5 22t29.5 67q-2 47 -32 76t-75 49l-58 27q-51 23 -85.5 65t-34.5 99q0 54 30 95.5t87 64.5q-48 26 -79 63t-31 94q0 60 41.5 98.5t110.5 38.5q54 0 93 -24.5t58 -69.5l-52 -26
q-18 33 -42 48t-57 15q-39 0 -63 -22t-24 -58q0 -22 8.5 -39.5t23.5 -32t34 -25.5t40 -21l57 -26q53 -25 86 -65t33 -95q0 -56 -29.5 -98t-84.5 -67q50 -27 79 -67t31 -98q0 -33 -12.5 -60t-34 -46t-51.5 -29.5t-65 -10.5zM222 145q52 18 85 47.5t33 80.5q0 41 -26 67
t-63 43l-15 7q-53 -17 -86.5 -46t-33.5 -78q0 -42 28 -70.5t66 -45.5z" />
    <glyph glyph-name="dieresis" unicode="&#xa8;" 
d="M112 576q-23 0 -39.5 16t-16.5 40q0 23 16.5 39t39.5 16t39 -16t16 -39q0 -25 -16 -40.5t-39 -15.5zM-110 576q-23 0 -39.5 16t-16.5 40q0 23 16 39t40 16q23 0 39 -16t16 -39q0 -25 -16.5 -40.5t-38.5 -15.5z" />
    <glyph glyph-name="copyright" unicode="&#xa9;" horiz-adv-x="820" 
d="M410 -9q-75 0 -141 28.5t-115.5 78t-78 115.5t-28.5 141t28.5 141t78 115.5t115.5 78.5t141 29t141 -29t115.5 -78.5t78 -115.5t28.5 -141t-28.5 -141t-78 -115.5t-115.5 -78t-141 -28.5zM410 44q63 0 119 24.5t97.5 66.5t65.5 98.5t24 121.5t-24 121.5t-65.5 98.5
t-97.5 66.5t-119 24.5t-118.5 -24.5t-97 -66.5t-65.5 -98.5t-24 -121.5t24 -121.5t65.5 -98.5t97 -66.5t118.5 -24.5zM428 183q-36 0 -67.5 13t-54.5 36t-36.5 54.5t-13.5 68.5q0 36 13.5 67.5t36.5 55t54.5 36.5t67.5 13q34 0 63.5 -12t50.5 -35l-33 -41q-14 14 -34.5 24
t-46.5 10q-51 0 -82.5 -34t-31.5 -84t31.5 -84t82.5 -34q26 0 46 10t35 25l33 -42q-20 -23 -50 -35t-64 -12z" />
    <glyph glyph-name="ordfeminine" unicode="&#xaa;" horiz-adv-x="421" 
d="M292 438q-39 -33 -93 -33q-33 0 -61 12t-48 32.5t-31.5 49t-11.5 61.5t11.5 61.5t31.5 49t48 32.5t61 12q53 0 93 -32v27h57v-300h-57v28zM201 459q32 0 55 13.5t36 33.5v108q-13 20 -36 33.5t-55 13.5q-42 0 -69 -29t-27 -72t27 -72t69 -29z" />
    <glyph glyph-name="guillemotleft" unicode="&#xab;" horiz-adv-x="501" 
d="M245 250l151 219l51 -35l-127 -184l127 -184l-51 -35zM46 250l151 219l51 -35l-127 -184l127 -184l-51 -35z" />
    <glyph glyph-name="uni00AD" unicode="&#xad;" horiz-adv-x="375" 
d="M65 309h239v-73h-239v73z" />
    <glyph glyph-name="registered" unicode="&#xae;" horiz-adv-x="820" 
d="M410 -9q-75 0 -141 28.5t-115.5 78t-78 115.5t-28.5 141t28.5 141t78 115.5t115.5 78.5t141 29t141 -29t115.5 -78.5t78 -115.5t28.5 -141t-28.5 -141t-78 -115.5t-115.5 -78t-141 -28.5zM410 49q63 0 118.5 24t97 65.5t65.5 97t24 118.5t-24 119t-65.5 97.5t-97 65.5
t-118.5 24t-118.5 -24t-97 -65.5t-65.5 -97.5t-24 -119t24 -118.5t65.5 -97t97 -65.5t118.5 -24zM309 522h104q49 0 80 -26.5t31 -71.5q0 -27 -16.5 -54.5t-56.5 -38.5l109 -145h-68l-102 139h-25v-139h-56v336zM409 375q57 0 57 47q0 49 -57 49h-44v-96h44z" />
    <glyph glyph-name="macron" unicode="&#xaf;" 
d="M-144 679h288v-54h-288v54z" />
    <glyph glyph-name="degree" unicode="&#xb0;" horiz-adv-x="336" 
d="M168 470q-25 0 -47.5 9.5t-39 26t-26 39t-9.5 47.5t9.5 47.5t26 39t39 26t47.5 9.5t47.5 -9.5t39 -26t26 -39t9.5 -47.5t-9.5 -47.5t-26 -39t-39 -26t-47.5 -9.5zM168 516q32 0 53.5 22.5t21.5 53.5t-21.5 53t-53.5 22q-31 0 -53.5 -22t-22.5 -53t22.5 -53.5t53.5 -22.5z
" />
    <glyph glyph-name="plusminus" unicode="&#xb1;" horiz-adv-x="590" 
d="M267 293h-191v58h191v149h58v-149h190v-58h-190v-152h-58v152zM76 58h439v-58h-439v58z" />
    <glyph glyph-name="uni00B2" unicode="&#xb2;" horiz-adv-x="347" 
d="M176 584q-29 0 -54 9t-43.5 26t-29 40t-10.5 52q0 27 11 50.5t29.5 40.5t43 27t52.5 10q27 0 51.5 -10t43 -27t29 -40.5t10.5 -50.5q0 -21 -5 -39t-15 -35t-25 -34.5t-34 -39.5l-89 -100h163v-53h-282zM175 633q32 0 54 22.5t22 55.5q0 32 -22 54t-54 22t-54.5 -22
t-22.5 -54q0 -33 22.5 -55.5t54.5 -22.5z" />
    <glyph glyph-name="uni00B3" unicode="&#xb3;" horiz-adv-x="328" 
d="M152 404q-38 0 -73 17.5t-54 49.5l44 34q28 -49 84 -49q36 0 59 25.5t23 63.5q0 37 -25 61.5t-68 24.5h-39l84 150h-144v52h231l-87 -156q51 -11 79 -44.5t28 -87.5q0 -28 -10 -53.5t-28.5 -45t-44.5 -31t-59 -11.5z" />
    <glyph glyph-name="acute" unicode="&#xb4;" 
d="M103.994 710h-87.9951l-89.9941 -160h58.9961z" />
    <glyph glyph-name="paragraph" unicode="&#xb6;" horiz-adv-x="632" 
d="M256 260q-47 0 -87.5 17.5t-71.5 48.5t-48.5 71.5t-17.5 87.5q0 46 17.5 87t48.5 72t71.5 48.5t87.5 17.5h268v-894h-63v830h-140v-830h-65v444z" />
    <glyph glyph-name="periodcentered" unicode="&#xb7;" horiz-adv-x="263" 
d="M132 184q-28 0 -47 19.5t-19 46.5q0 28 19.5 47.5t46.5 19.5q26 0 45.5 -19.5t19.5 -47.5q0 -27 -19 -46.5t-46 -19.5z" />
    <glyph glyph-name="cedilla" unicode="&#xb8;" 
d="M11 0h50l-67 -165h-80z" />
    <glyph glyph-name="uni00B9" unicode="&#xb9;" horiz-adv-x="183" 
d="M62 785l57 54v-429h-57v375z" />
    <glyph glyph-name="ordmasculine" unicode="&#xba;" horiz-adv-x="403" 
d="M202 405q-34 0 -62.5 12t-49.5 33t-32.5 49t-11.5 61t11.5 61t32.5 49t49.5 33t62.5 12t62.5 -12t49 -33t32 -49t11.5 -61t-11.5 -61t-32 -49t-49 -33t-62.5 -12zM202 459q44 0 70 29t26 72t-26 72t-70 29t-71 -29t-27 -72t27 -72t71 -29z" />
    <glyph glyph-name="guillemotright" unicode="&#xbb;" horiz-adv-x="500" 
d="M253 66l127 184l-127 184l51 35l150 -219l-150 -219zM54 66l127 184l-127 184l51 35l150 -219l-150 -219z" />
    <glyph glyph-name="onequarter" unicode="&#xbc;" horiz-adv-x="714" 
d="M62 662l57 54v-429h-57v375zM516 710h66l-500 -710h-66zM573 117h-237l294 313v-261h55v-52h-55v-116h-57v116zM573 169v130l-121 -130h121z" />
    <glyph glyph-name="onehalf" unicode="&#xbd;" horiz-adv-x="735" 
d="M62 662l57 54v-429h-57v375zM516 710h66l-500 -710h-66zM564 174q-29 0 -54 9t-43.5 26t-29 40t-10.5 52q0 27 11 50.5t29.5 40.5t43 27t52.5 10q27 0 51.5 -10t43 -27t29 -40.5t10.5 -50.5q0 -21 -5 -39t-15 -35t-25 -34.5t-34 -39.5l-89 -100h163v-53h-282zM563 223
q32 0 54 22.5t22 55.5q0 32 -22 54t-54 22t-54.5 -22t-22.5 -54q0 -33 22.5 -55.5t54.5 -22.5z" />
    <glyph glyph-name="threequarters" unicode="&#xbe;" horiz-adv-x="834" 
d="M151 281q-38 0 -73 17.5t-54 49.5l44 34q28 -49 84 -49q36 0 59 25.5t23 63.5q0 37 -25 61.5t-68 24.5h-39l84 150h-144v52h231l-87 -156q51 -11 79 -44.5t28 -87.5q0 -28 -10 -53.5t-28.5 -45t-44.5 -31t-59 -11.5zM636 710h66l-500 -710h-66zM693 117h-237l294 313
v-261h55v-52h-55v-116h-57v116zM693 169v130l-121 -130h121z" />
    <glyph glyph-name="questiondown" unicode="&#xbf;" horiz-adv-x="491" 
d="M219 385q-14 8 -23.5 23.5t-9.5 33.5q0 27 19.5 46.5t47.5 19.5q27 0 46 -19.5t19 -46.5q0 -18 -9 -33.5t-24 -23.5h-66zM250 -194q-44 0 -82 16t-66.5 44t-45 66.5t-16.5 82.5t16.5 82.5t45.5 66.5t68.5 44t85.5 16h56v-65h-57q-32 0 -59 -11t-46.5 -30t-30 -45.5
t-10.5 -57.5t10.5 -57t29.5 -45.5t45 -30.5t56 -11t56 11t44.5 30.5t29 45.5t10.5 57h70q0 -44 -16.5 -82.5t-45 -66.5t-66.5 -44t-82 -16z" />
    <glyph glyph-name="Agrave" unicode="&#xc0;" horiz-adv-x="675" 
d="M338 718l342 -718h-79l-94 201h-338l-94 -201h-80zM475 269l-137 290l-137 -290h274zM191 913h88l84 -145h-60z" />
    <glyph glyph-name="Aacute" unicode="&#xc1;" horiz-adv-x="675" 
d="M338 718l342 -718h-79l-94 201h-338l-94 -201h-80zM475 269l-137 290l-137 -290h274zM480.971 913h-87.9951l-83.9941 -145h59.9961z" />
    <glyph glyph-name="Acircumflex" unicode="&#xc2;" horiz-adv-x="675" 
d="M338 718l342 -718h-79l-94 201h-338l-94 -201h-80zM475 269l-137 290l-137 -290h274zM167 817l171 109l171 -109l-29 -49l-142 94l-142 -94z" />
    <glyph glyph-name="Atilde" unicode="&#xc3;" horiz-adv-x="675" 
d="M338 718l342 -718h-79l-94 201h-338l-94 -201h-80zM475 269l-137 290l-137 -290h274zM171 806q8 43 35.5 66.5t61.5 23.5q22 0 40 -8t34.5 -17t31 -17t28.5 -8q23 0 34.5 12.5t16.5 37.5h55l-3 -16q-8 -42 -34.5 -66t-62.5 -24q-21 0 -39.5 8t-35 17t-31.5 17t-30 8
q-22 0 -33 -13t-16 -38h-55z" />
    <glyph glyph-name="Adieresis" unicode="&#xc4;" horiz-adv-x="675" 
d="M338 718l342 -718h-79l-94 201h-338l-94 -201h-80zM475 269l-137 290l-137 -290h274zM450 788q-23 0 -39.5 16t-16.5 40q0 23 16.5 39t39.5 16t39 -16t16 -39q0 -25 -16 -40.5t-39 -15.5zM228 788q-23 0 -39.5 16t-16.5 40q0 23 16 39t40 16q23 0 39 -16t16 -39
q0 -25 -16.5 -40.5t-38.5 -15.5z" />
    <glyph glyph-name="Aring" unicode="&#xc5;" horiz-adv-x="675" 
d="M338 718l342 -718h-79l-94 201h-338l-94 -201h-80zM475 269l-137 290l-137 -290h274zM338 752q-20 0 -37 7t-29.5 19.5t-20 29t-7.5 35.5q0 39 27.5 65t66.5 26t66.5 -26t27.5 -65q0 -19 -7.5 -35.5t-20 -29t-30 -19.5t-36.5 -7zM338 792q21 0 36 14t15 37t-15 37t-36 14
t-36 -14t-15 -37t15 -37t36 -14z" />
    <glyph glyph-name="AE" unicode="&#xc6;" horiz-adv-x="1010" 
d="M3 0l305 639l-34 71h397l35 -72h-322l114 -238h276l34 -72h-276l122 -256h321l35 -72h-401l-95 201h-336l-95 -201h-80zM482 270l-136 289l-136 -289h272z" />
    <glyph glyph-name="Ccedilla" unicode="&#xc7;" horiz-adv-x="721" 
d="M410 -8q-76 0 -142 27.5t-115 76.5t-77 115.5t-28 143.5t28 143.5t77 115t115 76.5t142 28q46 0 87.5 -10t77.5 -28t65.5 -42t49.5 -51l-53 -46q-37 48 -95.5 77.5t-131.5 29.5q-61 0 -113.5 -22.5t-90.5 -62t-60 -93t-22 -115.5t22 -115.5t60 -92.5t90.5 -61.5
t113.5 -22.5q73 0 131.5 29.5t95.5 77.5l53 -47q-20 -27 -49.5 -51t-65.5 -42t-77.5 -28t-87.5 -10zM408 0h50l-67 -165h-80z" />
    <glyph glyph-name="Egrave" unicode="&#xc8;" horiz-adv-x="553" 
d="M99 710h405v-71h-331v-239h271v-72h-271v-257h331v-71h-405v710zM163 913h88l84 -145h-60z" />
    <glyph glyph-name="Eacute" unicode="&#xc9;" horiz-adv-x="553" 
d="M99 710h405v-71h-331v-239h271v-72h-271v-257h331v-71h-405v710zM451.973 913h-87.9951l-83.9951 -145h59.9971z" />
    <glyph glyph-name="Ecircumflex" unicode="&#xca;" horiz-adv-x="553" 
d="M99 710h405v-71h-331v-239h271v-72h-271v-257h331v-71h-405v710zM138 817l171 109l171 -109l-29 -49l-142 94l-142 -94z" />
    <glyph glyph-name="Edieresis" unicode="&#xcb;" horiz-adv-x="553" 
d="M99 710h405v-71h-331v-239h271v-72h-271v-257h331v-71h-405v710zM421 788q-23 0 -39.5 16t-16.5 40q0 23 16.5 39t39.5 16t39 -16t16 -39q0 -25 -16 -40.5t-39 -15.5zM199 788q-23 0 -39.5 16t-16.5 40q0 23 16 39t40 16q23 0 39 -16t16 -39q0 -25 -16.5 -40.5
t-38.5 -15.5z" />
    <glyph glyph-name="Igrave" unicode="&#xcc;" horiz-adv-x="272" 
d="M99 710h74v-710h-74v710zM-11 913h88l84 -145h-60z" />
    <glyph glyph-name="Iacute" unicode="&#xcd;" horiz-adv-x="272" 
d="M99 710h74v-710h-74v710zM278.983 913h-87.9951l-83.9951 -145h59.9971z" />
    <glyph glyph-name="Icircumflex" unicode="&#xce;" horiz-adv-x="272" 
d="M99 710h74v-710h-74v710zM-35 817l171 109l171 -109l-29 -49l-142 94l-142 -94z" />
    <glyph glyph-name="Idieresis" unicode="&#xcf;" horiz-adv-x="272" 
d="M99 710h74v-710h-74v710zM248 788q-23 0 -39.5 16t-16.5 40q0 23 16.5 39t39.5 16t39 -16t16 -39q0 -25 -16 -40.5t-39 -15.5zM26 788q-23 0 -39.5 16t-16.5 40q0 23 16 39t40 16q23 0 39 -16t16 -39q0 -25 -16.5 -40.5t-38.5 -15.5z" />
    <glyph glyph-name="Eth" unicode="&#xd0;" horiz-adv-x="762" 
d="M126 710h208q83 0 152.5 -27t120 -74.5t79 -112.5t28.5 -141q0 -77 -28.5 -142t-79 -112t-120 -74t-152.5 -27h-208v710zM334 69q69 0 125 21.5t96 59.5t62 90.5t22 114.5q0 61 -22 113.5t-62 91t-96 60t-125 21.5h-134v-572h134zM6 389h333v-61h-333v61z" />
    <glyph glyph-name="Ntilde" unicode="&#xd1;" horiz-adv-x="788" 
d="M173 543v-543h-74v718l516 -551v543h74v-718zM225 806q8 43 35.5 66.5t61.5 23.5q22 0 40 -8t34.5 -17t31 -17t28.5 -8q23 0 34.5 12.5t16.5 37.5h55l-3 -16q-8 -42 -34.5 -66t-62.5 -24q-21 0 -39.5 8t-35 17t-31.5 17t-30 8q-22 0 -33 -13t-16 -38h-55z" />
    <glyph glyph-name="Ograve" unicode="&#xd2;" horiz-adv-x="822" 
d="M411 -8q-77 0 -143 27.5t-115 76.5t-77 115.5t-28 143.5t28 143.5t77 115t115 76.5t143 28q76 0 142.5 -28t115.5 -76.5t77 -115t28 -143.5t-28 -143.5t-77 -115.5t-115.5 -76.5t-142.5 -27.5zM411 64q61 0 113.5 22.5t90.5 61.5t60 92t22 115t-22 115t-60 92t-90.5 61.5
t-113.5 22.5q-62 0 -114 -22.5t-90.5 -61.5t-60 -92t-21.5 -115t21.5 -115t60 -92t90.5 -61.5t114 -22.5zM264 913h88l84 -145h-60z" />
    <glyph glyph-name="Oacute" unicode="&#xd3;" horiz-adv-x="822" 
d="M411 -8q-77 0 -143 27.5t-115 76.5t-77 115.5t-28 143.5t28 143.5t77 115t115 76.5t143 28q76 0 142.5 -28t115.5 -76.5t77 -115t28 -143.5t-28 -143.5t-77 -115.5t-115.5 -76.5t-142.5 -27.5zM411 64q61 0 113.5 22.5t90.5 61.5t60 92t22 115t-22 115t-60 92t-90.5 61.5
t-113.5 22.5q-62 0 -114 -22.5t-90.5 -61.5t-60 -92t-21.5 -115t21.5 -115t60 -92t90.5 -61.5t114 -22.5zM552.966 913h-87.9941l-83.9951 -145h59.9961z" />
    <glyph glyph-name="Ocircumflex" unicode="&#xd4;" horiz-adv-x="822" 
d="M411 -8q-77 0 -143 27.5t-115 76.5t-77 115.5t-28 143.5t28 143.5t77 115t115 76.5t143 28q76 0 142.5 -28t115.5 -76.5t77 -115t28 -143.5t-28 -143.5t-77 -115.5t-115.5 -76.5t-142.5 -27.5zM411 64q61 0 113.5 22.5t90.5 61.5t60 92t22 115t-22 115t-60 92t-90.5 61.5
t-113.5 22.5q-62 0 -114 -22.5t-90.5 -61.5t-60 -92t-21.5 -115t21.5 -115t60 -92t90.5 -61.5t114 -22.5zM239 817l171 109l171 -109l-29 -49l-142 94l-142 -94z" />
    <glyph glyph-name="Otilde" unicode="&#xd5;" horiz-adv-x="822" 
d="M411 -8q-77 0 -143 27.5t-115 76.5t-77 115.5t-28 143.5t28 143.5t77 115t115 76.5t143 28q76 0 142.5 -28t115.5 -76.5t77 -115t28 -143.5t-28 -143.5t-77 -115.5t-115.5 -76.5t-142.5 -27.5zM411 64q61 0 113.5 22.5t90.5 61.5t60 92t22 115t-22 115t-60 92t-90.5 61.5
t-113.5 22.5q-62 0 -114 -22.5t-90.5 -61.5t-60 -92t-21.5 -115t21.5 -115t60 -92t90.5 -61.5t114 -22.5zM243 805q8 43 35.5 66.5t61.5 23.5q22 0 40 -8t34.5 -17t31 -17t28.5 -8q23 0 34.5 12.5t16.5 37.5h55l-3 -16q-8 -42 -34.5 -66t-62.5 -24q-21 0 -39.5 8t-35 17
t-31.5 17t-30 8q-22 0 -33 -13t-16 -38h-55z" />
    <glyph glyph-name="Odieresis" unicode="&#xd6;" horiz-adv-x="822" 
d="M411 -8q-77 0 -143 27.5t-115 76.5t-77 115.5t-28 143.5t28 143.5t77 115t115 76.5t143 28q76 0 142.5 -28t115.5 -76.5t77 -115t28 -143.5t-28 -143.5t-77 -115.5t-115.5 -76.5t-142.5 -27.5zM411 64q61 0 113.5 22.5t90.5 61.5t60 92t22 115t-22 115t-60 92t-90.5 61.5
t-113.5 22.5q-62 0 -114 -22.5t-90.5 -61.5t-60 -92t-21.5 -115t21.5 -115t60 -92t90.5 -61.5t114 -22.5zM522 787q-23 0 -39.5 16t-16.5 40q0 23 16.5 39t39.5 16t39 -16t16 -39q0 -25 -16 -40.5t-39 -15.5zM300 787q-23 0 -39.5 16t-16.5 40q0 23 16 39t40 16q23 0 39 -16
t16 -39q0 -25 -16.5 -40.5t-38.5 -15.5z" />
    <glyph glyph-name="multiply" unicode="&#xd7;" horiz-adv-x="590" 
d="M107 120l147 147l-150 150l42 41l149 -150l146 146l41 -40l-146 -146l149 -150l-41 -40l-149 149l-147 -147z" />
    <glyph glyph-name="Oslash" unicode="&#xd8;" horiz-adv-x="822" 
d="M80 -19l82 106l-9 9q-49 49 -77 115.5t-28 143.5t28 143.5t77 115t115 76.5t143 28q76 0 142 -28q29 -12 54 -29l83 107l48 -38l-82 -105q7 -6 13 -12q49 -48 77 -114.5t28 -143.5t-28 -143.5t-77 -115.5t-115.5 -76.5t-142.5 -27.5q-77 0 -143 27q-31 13 -59 30
l-82 -106zM411 64q61 0 113.5 22.5t90.5 61.5t60 92t22 115t-22 115t-60 92l-5 4l-355 -458q20 -12 42 -22q52 -22 114 -22zM524 623q-52 23 -113 23q-62 0 -114 -22.5t-90.5 -61.5t-60 -92t-21.5 -115t21.5 -115t59.5 -92l2 -2l355 458q-19 11 -39 19z" />
    <glyph glyph-name="Ugrave" unicode="&#xd9;" horiz-adv-x="736" 
d="M368 -8q-62 0 -113 18.5t-88 54t-57 87t-20 116.5v442h74v-445q0 -50 14.5 -88t41.5 -63.5t64.5 -38t83.5 -12.5t83.5 12.5t64.5 38t41.5 63.5t14.5 88v445h74v-442q0 -65 -20 -116.5t-56.5 -87t-88 -54t-113.5 -18.5zM220 913h88l84 -145h-60z" />
    <glyph glyph-name="Uacute" unicode="&#xda;" horiz-adv-x="736" 
d="M368 -8q-62 0 -113 18.5t-88 54t-57 87t-20 116.5v442h74v-445q0 -50 14.5 -88t41.5 -63.5t64.5 -38t83.5 -12.5t83.5 12.5t64.5 38t41.5 63.5t14.5 88v445h74v-442q0 -65 -20 -116.5t-56.5 -87t-88 -54t-113.5 -18.5zM508.969 913h-87.9941l-83.9951 -145h59.9961z" />
    <glyph glyph-name="Ucircumflex" unicode="&#xdb;" horiz-adv-x="736" 
d="M368 -8q-62 0 -113 18.5t-88 54t-57 87t-20 116.5v442h74v-445q0 -50 14.5 -88t41.5 -63.5t64.5 -38t83.5 -12.5t83.5 12.5t64.5 38t41.5 63.5t14.5 88v445h74v-442q0 -65 -20 -116.5t-56.5 -87t-88 -54t-113.5 -18.5zM195 817l171 109l171 -109l-29 -49l-142 94
l-142 -94z" />
    <glyph glyph-name="Udieresis" unicode="&#xdc;" horiz-adv-x="736" 
d="M368 -8q-62 0 -113 18.5t-88 54t-57 87t-20 116.5v442h74v-445q0 -50 14.5 -88t41.5 -63.5t64.5 -38t83.5 -12.5t83.5 12.5t64.5 38t41.5 63.5t14.5 88v445h74v-442q0 -65 -20 -116.5t-56.5 -87t-88 -54t-113.5 -18.5zM478 788q-23 0 -39.5 16t-16.5 40q0 23 16.5 39
t39.5 16t39 -16t16 -39q0 -25 -16 -40.5t-39 -15.5zM256 788q-23 0 -39.5 16t-16.5 40q0 23 16 39t40 16q23 0 39 -16t16 -39q0 -25 -16.5 -40.5t-38.5 -15.5z" />
    <glyph glyph-name="Yacute" unicode="&#xdd;" horiz-adv-x="616" 
d="M271 301l-260 409h86l211 -337l211 337h86l-260 -409v-301h-74v301zM451.973 913h-87.9951l-83.9951 -145h59.9971z" />
    <glyph glyph-name="Thorn" unicode="&#xde;" horiz-adv-x="578" 
d="M99 710h74v-141h120q57 0 102 -15.5t76.5 -43t48 -66.5t16.5 -86t-16.5 -86t-48 -66.5t-76.5 -43t-102 -15.5h-120v-147h-74v710zM173 500v-284h120q83 0 125.5 38.5t42.5 103.5q0 66 -42.5 104t-125.5 38h-120z" />
    <glyph glyph-name="germandbls" unicode="&#xdf;" horiz-adv-x="537" 
d="M432 53q0 37 -13.5 68.5t-38.5 54t-60 35.5t-77 13v55l110 157h-204v-436h-70v567q0 72 37 107.5t109 35.5h36v-64h-28q-49 0 -66.5 -23t-17.5 -70v-53h327l-155 -224q88 -22 134.5 -82t46.5 -141q0 -51 -19 -94.5t-53.5 -75t-82 -49.5t-104.5 -18v67q42 0 77 12.5t60 35
t38.5 54t13.5 68.5z" />
    <glyph glyph-name="agrave" unicode="&#xe0;" horiz-adv-x="618" 
d="M469 58q-32 -32 -75.5 -49t-93.5 -17q-56 0 -103 20t-81 55t-53 82t-19 101t19 101t53 82t81 55t103 20q50 0 93.5 -17t75.5 -49v58h70v-500h-70v58zM301 58q57 0 100 24t68 62v212q-24 38 -67.5 62t-100.5 24q-41 0 -74.5 -15t-58.5 -41t-38.5 -61t-13.5 -75t13.5 -75
t38.5 -61t58.5 -41t74.5 -15zM174 710h88l90 -160h-59z" />
    <glyph glyph-name="aacute" unicode="&#xe1;" horiz-adv-x="618" 
d="M469 58q-32 -32 -75.5 -49t-93.5 -17q-56 0 -103 20t-81 55t-53 82t-19 101t19 101t53 82t81 55t103 20q50 0 93.5 -17t75.5 -49v58h70v-500h-70v58zM301 58q57 0 100 24t68 62v212q-24 38 -67.5 62t-100.5 24q-41 0 -74.5 -15t-58.5 -41t-38.5 -61t-13.5 -75t13.5 -75
t38.5 -61t58.5 -41t74.5 -15zM456.972 710h-87.9941l-89.9941 -160h58.9961z" />
    <glyph glyph-name="acircumflex" unicode="&#xe2;" horiz-adv-x="618" 
d="M469 58q-32 -32 -75.5 -49t-93.5 -17q-56 0 -103 20t-81 55t-53 82t-19 101t19 101t53 82t81 55t103 20q50 0 93.5 -17t75.5 -49v58h70v-500h-70v58zM301 58q57 0 100 24t68 62v212q-24 38 -67.5 62t-100.5 24q-41 0 -74.5 -15t-58.5 -41t-38.5 -61t-13.5 -75t13.5 -75
t38.5 -61t58.5 -41t74.5 -15zM471 602l-31 -45l-127 94l-127 -94l-31 45l158 116z" />
    <glyph glyph-name="atilde" unicode="&#xe3;" horiz-adv-x="618" 
d="M469 58q-32 -32 -75.5 -49t-93.5 -17q-56 0 -103 20t-81 55t-53 82t-19 101t19 101t53 82t81 55t103 20q50 0 93.5 -17t75.5 -49v58h70v-500h-70v58zM301 58q57 0 100 24t68 62v212q-24 38 -67.5 62t-100.5 24q-41 0 -74.5 -15t-58.5 -41t-38.5 -61t-13.5 -75t13.5 -75
t38.5 -61t58.5 -41t74.5 -15zM147 587q8 43 35.5 66.5t61.5 23.5q22 0 40 -8t34.5 -17t31 -17t28.5 -8q23 0 34.5 12.5t16.5 37.5h55l-3 -16q-8 -42 -34.5 -66t-62.5 -24q-21 0 -39.5 8t-35 17t-31.5 17t-30 8q-22 0 -33 -13t-16 -38h-55z" />
    <glyph glyph-name="adieresis" unicode="&#xe4;" horiz-adv-x="618" 
d="M469 58q-32 -32 -75.5 -49t-93.5 -17q-56 0 -103 20t-81 55t-53 82t-19 101t19 101t53 82t81 55t103 20q50 0 93.5 -17t75.5 -49v58h70v-500h-70v58zM301 58q57 0 100 24t68 62v212q-24 38 -67.5 62t-100.5 24q-41 0 -74.5 -15t-58.5 -41t-38.5 -61t-13.5 -75t13.5 -75
t38.5 -61t58.5 -41t74.5 -15zM425 576q-23 0 -39.5 16t-16.5 40q0 23 16.5 39t39.5 16t39 -16t16 -39q0 -25 -16 -40.5t-39 -15.5zM203 576q-23 0 -39.5 16t-16.5 40q0 23 16 39t40 16q23 0 39 -16t16 -39q0 -25 -16.5 -40.5t-38.5 -15.5z" />
    <glyph glyph-name="aring" unicode="&#xe5;" horiz-adv-x="618" 
d="M469 58q-32 -32 -75.5 -49t-93.5 -17q-56 0 -103 20t-81 55t-53 82t-19 101t19 101t53 82t81 55t103 20q50 0 93.5 -17t75.5 -49v58h70v-500h-70v58zM301 58q57 0 100 24t68 62v212q-24 38 -67.5 62t-100.5 24q-41 0 -74.5 -15t-58.5 -41t-38.5 -61t-13.5 -75t13.5 -75
t38.5 -61t58.5 -41t74.5 -15zM313 572q-20 0 -37 7t-29.5 19.5t-20 29t-7.5 35.5q0 39 27.5 65t66.5 26t66.5 -26t27.5 -65q0 -19 -7.5 -35.5t-20 -29t-30 -19.5t-36.5 -7zM313 612q21 0 36 14t15 37t-15 37t-36 14t-36 -14t-15 -37t15 -37t36 -14z" />
    <glyph glyph-name="ae" unicode="&#xe6;" horiz-adv-x="934" 
d="M862 72q-33 -34 -84.5 -57t-115.5 -23q-62 0 -117 26t-93 79q-45 -57 -100.5 -81t-118.5 -24q-90 0 -143.5 44.5t-53.5 120.5q0 36 14.5 65.5t41 51.5t63.5 34t82 12q54 0 95 -12t72 -32v36q0 37 -12.5 62t-33 40t-47.5 21.5t-57 6.5q-47 0 -85.5 -16t-64.5 -40l-34 57
q32 27 79 46t106 19q29 0 58 -5.5t55 -18.5t47 -35t33 -54q35 56 91 84.5t116 28.5q51 0 94.5 -17.5t76 -52t51.5 -85.5t20 -117h-420q3 -41 18.5 -73.5t40.5 -56t57.5 -36t68.5 -12.5q49 0 88.5 18.5t65.5 44.5zM651 443q-28 0 -55.5 -9.5t-50.5 -27.5t-40.5 -45t-24.5 -63
h338q-9 72 -55 109t-112 36zM236 58q60 0 104.5 24.5t69.5 64.5q-1 2 -2 11t-2 19.5t-1.5 19.5t-0.5 12q-29 24 -68.5 37.5t-92.5 13.5q-57 0 -96 -26t-39 -77q0 -25 10 -43.5t27.5 -31t40.5 -18.5t50 -6z" />
    <glyph glyph-name="ccedilla" unicode="&#xe7;" horiz-adv-x="521" 
d="M301 -8q-56 0 -103 20t-81.5 55t-53.5 82t-19 101t19 101t53.5 82t81.5 55t103 20q61 0 108.5 -22t81.5 -56l-45 -49q-26 26 -62 43.5t-83 17.5q-41 0 -74.5 -15t-58.5 -41t-38.5 -61t-13.5 -75t13.5 -75t38.5 -61t58.5 -41t74.5 -15q47 0 83 17.5t62 43.5l45 -49
q-34 -34 -81.5 -56t-108.5 -22zM281 0h50l-67 -165h-80z" />
    <glyph glyph-name="egrave" unicode="&#xe8;" horiz-adv-x="573" 
d="M301 -8q-56 0 -103 20t-81.5 55t-53.5 82t-19 101t19 101t53 82t79.5 55t98.5 20q55 0 100 -20t76.5 -56t48.5 -86t17 -110h-421q3 -40 18.5 -72.5t40.5 -56t57.5 -36.5t69.5 -13q50 0 89.5 18.5t65.5 44.5l45 -49q-33 -34 -84.5 -57t-115.5 -23zM290 443q-28 0 -55.5 -9
t-50.5 -27.5t-40 -45.5t-24 -63h337q-9 72 -55 109t-112 36zM156 710h88l90 -160h-59z" />
    <glyph glyph-name="eacute" unicode="&#xe9;" horiz-adv-x="573" 
d="M301 -8q-56 0 -103 20t-81.5 55t-53.5 82t-19 101t19 101t53 82t79.5 55t98.5 20q55 0 100 -20t76.5 -56t48.5 -86t17 -110h-421q3 -40 18.5 -72.5t40.5 -56t57.5 -36.5t69.5 -13q50 0 89.5 18.5t65.5 44.5l45 -49q-33 -34 -84.5 -57t-115.5 -23zM290 443q-28 0 -55.5 -9
t-50.5 -27.5t-40 -45.5t-24 -63h337q-9 72 -55 109t-112 36zM438.974 710h-87.9951l-89.9941 -160h58.9961z" />
    <glyph glyph-name="ecircumflex" unicode="&#xea;" horiz-adv-x="573" 
d="M301 -8q-56 0 -103 20t-81.5 55t-53.5 82t-19 101t19 101t53 82t79.5 55t98.5 20q55 0 100 -20t76.5 -56t48.5 -86t17 -110h-421q3 -40 18.5 -72.5t40.5 -56t57.5 -36.5t69.5 -13q50 0 89.5 18.5t65.5 44.5l45 -49q-33 -34 -84.5 -57t-115.5 -23zM290 443q-28 0 -55.5 -9
t-50.5 -27.5t-40 -45.5t-24 -63h337q-9 72 -55 109t-112 36zM453 602l-31 -45l-127 94l-127 -94l-31 45l158 116z" />
    <glyph glyph-name="edieresis" unicode="&#xeb;" horiz-adv-x="573" 
d="M301 -8q-56 0 -103 20t-81.5 55t-53.5 82t-19 101t19 101t53 82t79.5 55t98.5 20q55 0 100 -20t76.5 -56t48.5 -86t17 -110h-421q3 -40 18.5 -72.5t40.5 -56t57.5 -36.5t69.5 -13q50 0 89.5 18.5t65.5 44.5l45 -49q-33 -34 -84.5 -57t-115.5 -23zM290 443q-28 0 -55.5 -9
t-50.5 -27.5t-40 -45.5t-24 -63h337q-9 72 -55 109t-112 36zM407 576q-23 0 -39.5 16t-16.5 40q0 23 16.5 39t39.5 16t39 -16t16 -39q0 -25 -16 -40.5t-39 -15.5zM185 576q-23 0 -39.5 16t-16.5 40q0 23 16 39t40 16q23 0 39 -16t16 -39q0 -25 -16.5 -40.5t-38.5 -15.5z" />
    <glyph glyph-name="igrave" unicode="&#xec;" horiz-adv-x="228" 
d="M79 500h70v-500h-70v500zM-25 710h88l90 -160h-59z" />
    <glyph glyph-name="iacute" unicode="&#xed;" horiz-adv-x="228" 
d="M79 500h70v-500h-70v500zM257.984 710h-87.9951l-89.9941 -160h58.9961z" />
    <glyph glyph-name="icircumflex" unicode="&#xee;" horiz-adv-x="228" 
d="M79 500h70v-500h-70v500zM272 602l-31 -45l-127 94l-127 -94l-31 45l158 116z" />
    <glyph glyph-name="idieresis" unicode="&#xef;" horiz-adv-x="228" 
d="M79 500h70v-500h-70v500zM8 576q-23 0 -39.5 16t-16.5 40q0 23 16.5 39t39.5 16t39.5 -16t16.5 -39q0 -24 -16.5 -40t-39.5 -16zM220 576q-23 0 -39.5 16t-16.5 40q0 23 16.5 39t39.5 16t39.5 -16t16.5 -39q0 -24 -16.5 -40t-39.5 -16z" />
    <glyph glyph-name="eth" unicode="&#xf0;" horiz-adv-x="605" 
d="M183 628h96l-57 82h77l57 -82h128v-54h-90l115 -166q29 -42 40.5 -80t11.5 -78q0 -53 -19.5 -100t-54 -82t-82 -55.5t-103.5 -20.5q-57 0 -104.5 20.5t-82 55.5t-53.5 82t-19 100q0 52 18.5 98.5t52.5 81.5t80 56t102 22q17 0 34 -3t41 -11l-55 80h-133v54zM302 57
q42 0 76.5 15t59.5 41.5t38.5 61.5t13.5 75t-13.5 75t-38.5 61.5t-59.5 41.5t-76.5 15t-76.5 -15t-59 -41.5t-38.5 -61.5t-14 -75t14 -75t38.5 -61.5t59 -41.5t76.5 -15z" />
    <glyph glyph-name="ntilde" unicode="&#xf1;" horiz-adv-x="579" 
d="M79 500h70v-69q28 39 70.5 58t92.5 19q44 0 80 -14.5t61.5 -41t39.5 -64t14 -83.5v-305h-70v300q0 63 -36.5 102.5t-102.5 39.5q-57 0 -95.5 -30.5t-53.5 -82.5v-329h-70v500zM141 587q8 43 35.5 66.5t61.5 23.5q22 0 40 -8t34.5 -17t31 -17t28.5 -8q23 0 34.5 12.5
t16.5 37.5h55l-3 -16q-8 -42 -34.5 -66t-62.5 -24q-21 0 -39.5 8t-35 17t-31.5 17t-30 8q-22 0 -33 -13t-16 -38h-55z" />
    <glyph glyph-name="ograve" unicode="&#xf2;" horiz-adv-x="606" 
d="M303 -8q-57 0 -104.5 20t-82 55t-53.5 82t-19 101t19 101t53.5 82t82 55t104.5 20t104.5 -20t82 -55t53.5 -82t19 -101t-19 -101t-53.5 -82t-82 -55t-104.5 -20zM303 58q42 0 76 15t59 41t38.5 61t13.5 75t-13.5 75t-38.5 61t-59 41t-76 15q-41 0 -75.5 -15t-59.5 -41
t-38.5 -61t-13.5 -75t13.5 -75t38.5 -61t59.5 -41t75.5 -15zM165 710h88l90 -160h-59z" />
    <glyph glyph-name="oacute" unicode="&#xf3;" horiz-adv-x="606" 
d="M303 -8q-57 0 -104.5 20t-82 55t-53.5 82t-19 101t19 101t53.5 82t82 55t104.5 20t104.5 -20t82 -55t53.5 -82t19 -101t-19 -101t-53.5 -82t-82 -55t-104.5 -20zM303 58q42 0 76 15t59 41t38.5 61t13.5 75t-13.5 75t-38.5 61t-59 41t-76 15q-41 0 -75.5 -15t-59.5 -41
t-38.5 -61t-13.5 -75t13.5 -75t38.5 -61t59.5 -41t75.5 -15zM447.973 710h-87.9941l-89.9951 -160h58.9961z" />
    <glyph glyph-name="ocircumflex" unicode="&#xf4;" horiz-adv-x="606" 
d="M303 -8q-57 0 -104.5 20t-82 55t-53.5 82t-19 101t19 101t53.5 82t82 55t104.5 20t104.5 -20t82 -55t53.5 -82t19 -101t-19 -101t-53.5 -82t-82 -55t-104.5 -20zM303 58q42 0 76 15t59 41t38.5 61t13.5 75t-13.5 75t-38.5 61t-59 41t-76 15q-41 0 -75.5 -15t-59.5 -41
t-38.5 -61t-13.5 -75t13.5 -75t38.5 -61t59.5 -41t75.5 -15zM461 602l-31 -45l-127 94l-127 -94l-31 45l158 116z" />
    <glyph glyph-name="otilde" unicode="&#xf5;" horiz-adv-x="606" 
d="M303 -8q-57 0 -104.5 20t-82 55t-53.5 82t-19 101t19 101t53.5 82t82 55t104.5 20t104.5 -20t82 -55t53.5 -82t19 -101t-19 -101t-53.5 -82t-82 -55t-104.5 -20zM303 58q42 0 76 15t59 41t38.5 61t13.5 75t-13.5 75t-38.5 61t-59 41t-76 15q-41 0 -75.5 -15t-59.5 -41
t-38.5 -61t-13.5 -75t13.5 -75t38.5 -61t59.5 -41t75.5 -15zM137 587q8 43 35.5 66.5t61.5 23.5q22 0 40 -8t34.5 -17t31 -17t28.5 -8q23 0 34.5 12.5t16.5 37.5h55l-3 -16q-8 -42 -34.5 -66t-62.5 -24q-21 0 -39.5 8t-35 17t-31.5 17t-30 8q-22 0 -33 -13t-16 -38h-55z" />
    <glyph glyph-name="odieresis" unicode="&#xf6;" horiz-adv-x="606" 
d="M303 -8q-57 0 -104.5 20t-82 55t-53.5 82t-19 101t19 101t53.5 82t82 55t104.5 20t104.5 -20t82 -55t53.5 -82t19 -101t-19 -101t-53.5 -82t-82 -55t-104.5 -20zM303 58q42 0 76 15t59 41t38.5 61t13.5 75t-13.5 75t-38.5 61t-59 41t-76 15q-41 0 -75.5 -15t-59.5 -41
t-38.5 -61t-13.5 -75t13.5 -75t38.5 -61t59.5 -41t75.5 -15zM415 576q-23 0 -39.5 16t-16.5 40q0 23 16.5 39t39.5 16t39 -16t16 -39q0 -25 -16 -40.5t-39 -15.5zM193 576q-23 0 -39.5 16t-16.5 40q0 23 16 39t40 16q23 0 39 -16t16 -39q0 -25 -16.5 -40.5t-38.5 -15.5z" />
    <glyph glyph-name="divide" unicode="&#xf7;" horiz-adv-x="590" 
d="M295 349q-26 0 -45 18t-19 45q0 26 19 44.5t45 18.5t44 -18.5t18 -44.5t-18 -44.5t-44 -18.5zM75 303h439v-61h-439v61zM295 70q-26 0 -45 18t-19 45q0 26 19 44t45 18t44 -18t18 -44q0 -27 -18 -45t-44 -18z" />
    <glyph glyph-name="oslash" unicode="&#xf8;" horiz-adv-x="608" 
d="M47 -21l71 87l-1 1q-34 35 -53 82t-19 101t19 101t53.5 82t82 55t104.5 20t104 -20q19 -8 36 -19l74 92l45 -37l-73 -91q35 -35 54 -82t19 -101t-19 -101t-53.5 -82t-82 -55t-104.5 -20t-105 20q-19 8 -36 18l-71 -88zM304 58q42 0 76 15t59 41t38.5 61t13.5 75t-14 75
q-11 30 -32 54l-238 -295q10 -6 21 -11q35 -15 76 -15zM380 427q-34 15 -76 15q-41 0 -75.5 -15t-59.5 -41t-38.5 -61t-13.5 -75t13 -75q12 -30 32 -54l239 295q-10 6 -21 11z" />
    <glyph glyph-name="ugrave" unicode="&#xf9;" horiz-adv-x="578" 
d="M429 68q-29 -39 -71 -57.5t-91 -18.5q-45 0 -81 14.5t-61.5 41t-39 64t-13.5 83.5v305h70v-300q0 -63 36.5 -102.5t101.5 -39.5q57 0 94.5 29.5t54.5 80.5v332h70v-500h-70v68zM147 710h88l90 -160h-59z" />
    <glyph glyph-name="uacute" unicode="&#xfa;" horiz-adv-x="578" 
d="M429 68q-29 -39 -71 -57.5t-91 -18.5q-45 0 -81 14.5t-61.5 41t-39 64t-13.5 83.5v305h70v-300q0 -63 36.5 -102.5t101.5 -39.5q57 0 94.5 29.5t54.5 80.5v332h70v-500h-70v68zM429.974 710h-87.9941l-89.9951 -160h58.9971z" />
    <glyph glyph-name="ucircumflex" unicode="&#xfb;" horiz-adv-x="578" 
d="M429 68q-29 -39 -71 -57.5t-91 -18.5q-45 0 -81 14.5t-61.5 41t-39 64t-13.5 83.5v305h70v-300q0 -63 36.5 -102.5t101.5 -39.5q57 0 94.5 29.5t54.5 80.5v332h70v-500h-70v68zM443 602l-31 -45l-127 94l-127 -94l-31 45l158 116z" />
    <glyph glyph-name="udieresis" unicode="&#xfc;" horiz-adv-x="578" 
d="M429 68q-29 -39 -71 -57.5t-91 -18.5q-45 0 -81 14.5t-61.5 41t-39 64t-13.5 83.5v305h70v-300q0 -63 36.5 -102.5t101.5 -39.5q57 0 94.5 29.5t54.5 80.5v332h70v-500h-70v68zM397 576q-23 0 -39.5 16t-16.5 40q0 23 16.5 39t39.5 16t39 -16t16 -39q0 -25 -16 -40.5
t-39 -15.5zM175 576q-23 0 -39.5 16t-16.5 40q0 23 16 39t40 16q23 0 39 -16t16 -39q0 -25 -16.5 -40.5t-38.5 -15.5z" />
    <glyph glyph-name="yacute" unicode="&#xfd;" horiz-adv-x="507" 
d="M218 34l-212 466h76l172 -389l174 389h76l-313 -684h-75zM400.976 710h-87.9951l-89.9941 -160h58.9961z" />
    <glyph glyph-name="thorn" unicode="&#xfe;" horiz-adv-x="618" 
d="M79 -184v894h70v-268q32 32 75 49t94 17q56 0 103 -20t81 -55t53 -82t19 -101t-19 -101t-53 -82t-81 -55t-103 -20q-51 0 -94 17t-75 49v-242h-70zM317 442q-57 0 -101 -24t-67 -62v-212q24 -38 67.5 -62t100.5 -24q40 0 74 15t58.5 41t38.5 61t14 75t-14 75t-38.5 61
t-58.5 41t-74 15z" />
    <glyph glyph-name="ydieresis" unicode="&#xff;" horiz-adv-x="507" 
d="M218 34l-212 466h76l172 -389l174 389h76l-313 -684h-75zM368 576q-23 0 -39.5 16t-16.5 40q0 23 16.5 39t39.5 16t39 -16t16 -39q0 -25 -16 -40.5t-39 -15.5zM146 576q-23 0 -39.5 16t-16.5 40q0 23 16 39t40 16q23 0 39 -16t16 -39q0 -25 -16.5 -40.5t-38.5 -15.5z" />
    <glyph glyph-name="Abreve" unicode="&#x102;" horiz-adv-x="675" 
d="M338 718l342 -718h-79l-94 201h-338l-94 -201h-80zM475 269l-137 290l-137 -290h274zM337 774q-34 0 -61.5 10.5t-47 28.5t-30.5 42t-12 52h53q4 -37 29 -60.5t70 -23.5t70.5 23.5t29.5 60.5h53q-2 -28 -13 -52t-31 -42t-47.5 -28.5t-62.5 -10.5z" />
    <glyph glyph-name="Amacron" unicode="&#x100;" horiz-adv-x="675" 
d="M338 718l342 -718h-79l-94 201h-338l-94 -201h-80zM475 269l-137 290l-137 -290h274zM194 864h288v-54h-288v54z" />
    <glyph glyph-name="Aogonek" unicode="&#x104;" horiz-adv-x="675" 
d="M338 718l342 -718h1q-39 -17 -61.5 -41.5t-22.5 -50.5q0 -23 15 -34.5t39 -11.5q11 0 20.5 3t15.5 5v-49q-13 -8 -28 -10.5t-31 -2.5q-20 0 -38 5.5t-32.5 16t-23 26.5t-8.5 37q0 18 6.5 35t17 31t24 24.5t26.5 17.5l-93 200h-338l-94 -201h-80zM475 269l-137 290
l-137 -290h274z" />
    <glyph glyph-name="Cacute" unicode="&#x106;" horiz-adv-x="721" 
d="M410 -8q-76 0 -142 27.5t-115 76.5t-77 115.5t-28 143.5t28 143.5t77 115t115 76.5t142 28q46 0 87.5 -10t77.5 -28t65.5 -42t49.5 -51l-53 -46q-37 48 -95.5 77.5t-131.5 29.5q-61 0 -113.5 -22.5t-90.5 -62t-60 -93t-22 -115.5t22 -115.5t60 -92.5t90.5 -61.5
t113.5 -22.5q73 0 131.5 29.5t95.5 77.5l53 -47q-20 -27 -49.5 -51t-65.5 -42t-77.5 -28t-87.5 -10zM551.967 913h-87.9951l-83.9951 -145h59.9961z" />
    <glyph glyph-name="Ccaron" unicode="&#x10c;" horiz-adv-x="721" 
d="M410 -8q-76 0 -142 27.5t-115 76.5t-77 115.5t-28 143.5t28 143.5t77 115t115 76.5t142 28q46 0 87.5 -10t77.5 -28t65.5 -42t49.5 -51l-53 -46q-37 48 -95.5 77.5t-131.5 29.5q-61 0 -113.5 -22.5t-90.5 -62t-60 -93t-22 -115.5t22 -115.5t60 -92.5t90.5 -61.5
t113.5 -22.5q73 0 131.5 29.5t95.5 77.5l53 -47q-20 -27 -49.5 -51t-65.5 -42t-77.5 -28t-87.5 -10zM579.965 877.946l-170.99 -108.993l-170.989 108.993l28.998 48.9971l141.991 -93.9941l141.992 93.9941z" />
    <glyph glyph-name="Ccircumflex" unicode="&#x108;" horiz-adv-x="721" 
d="M410 -8q-76 0 -142 27.5t-115 76.5t-77 115.5t-28 143.5t28 143.5t77 115t115 76.5t142 28q46 0 87.5 -10t77.5 -28t65.5 -42t49.5 -51l-53 -46q-37 48 -95.5 77.5t-131.5 29.5q-61 0 -113.5 -22.5t-90.5 -62t-60 -93t-22 -115.5t22 -115.5t60 -92.5t90.5 -61.5
t113.5 -22.5q73 0 131.5 29.5t95.5 77.5l53 -47q-20 -27 -49.5 -51t-65.5 -42t-77.5 -28t-87.5 -10zM238 817l171 109l171 -109l-29 -49l-142 94l-142 -94z" />
    <glyph glyph-name="Cdotaccent" unicode="&#x10a;" horiz-adv-x="721" 
d="M410 -8q-76 0 -142 27.5t-115 76.5t-77 115.5t-28 143.5t28 143.5t77 115t115 76.5t142 28q46 0 87.5 -10t77.5 -28t65.5 -42t49.5 -51l-53 -46q-37 48 -95.5 77.5t-131.5 29.5q-61 0 -113.5 -22.5t-90.5 -62t-60 -93t-22 -115.5t22 -115.5t60 -92.5t90.5 -61.5
t113.5 -22.5q73 0 131.5 29.5t95.5 77.5l53 -47q-20 -27 -49.5 -51t-65.5 -42t-77.5 -28t-87.5 -10zM409 788q-23 0 -39.5 15.5t-16.5 40.5q0 23 16.5 39t39.5 16t39.5 -16t16.5 -39q0 -24 -16.5 -40t-39.5 -16z" />
    <glyph glyph-name="Dcaron" unicode="&#x10e;" horiz-adv-x="735" 
d="M99 710h208q83 0 152.5 -27t120 -74.5t79 -112.5t28.5 -141q0 -77 -28.5 -142t-79 -112t-120 -74t-152.5 -27h-208v710zM307 69q69 0 125 21.5t96 59.5t62 90.5t22 114.5q0 61 -22 113.5t-62 91t-96 60t-125 21.5h-134v-572h134zM508.969 877.946l-170.989 -108.993
l-170.989 108.993l28.998 48.9971l141.991 -93.9941l141.991 93.9941z" />
    <glyph glyph-name="Dcroat" unicode="&#x110;" horiz-adv-x="762" 
d="M126 710h208q83 0 152.5 -27t120 -74.5t79 -112.5t28.5 -141q0 -77 -28.5 -142t-79 -112t-120 -74t-152.5 -27h-208v710zM334 69q69 0 125 21.5t96 59.5t62 90.5t22 114.5q0 61 -22 113.5t-62 91t-96 60t-125 21.5h-134v-572h134zM6 389h333v-61h-333v61z" />
    <glyph glyph-name="Ebreve" unicode="&#x114;" horiz-adv-x="553" 
d="M99 710h405v-71h-331v-239h271v-72h-271v-257h331v-71h-405v710zM308 774q-34 0 -61.5 10.5t-47 28.5t-30.5 42t-12 52h53q4 -37 29 -60.5t70 -23.5t70.5 23.5t29.5 60.5h53q-2 -28 -13 -52t-31 -42t-47.5 -28.5t-62.5 -10.5z" />
    <glyph glyph-name="Ecaron" unicode="&#x11a;" horiz-adv-x="553" 
d="M99 710h405v-71h-331v-239h271v-72h-271v-257h331v-71h-405v710zM479.971 877.946l-170.989 -108.993l-170.99 108.993l28.999 48.9971l141.991 -93.9941l141.991 93.9941z" />
    <glyph glyph-name="Emacron" unicode="&#x112;" horiz-adv-x="553" 
d="M99 710h405v-71h-331v-239h271v-72h-271v-257h331v-71h-405v710zM165 864h288v-54h-288v54z" />
    <glyph glyph-name="Eogonek" unicode="&#x118;" horiz-adv-x="553" 
d="M99 710h405v-71h-331v-239h271v-72h-271v-257h331v-71h-405v710zM452 -192q-20 0 -38 5.5t-32.5 16t-23 26.5t-8.5 37q0 19 7.5 36t19 31t26 25t28.5 17l74 -2q-39 -17 -61 -41.5t-22 -50.5q0 -23 14.5 -34.5t38.5 -11.5q11 0 20.5 3t15.5 5v-49q-13 -8 -28 -10.5
t-31 -2.5z" />
    <glyph glyph-name="Edotaccent" unicode="&#x116;" horiz-adv-x="553" 
d="M99 710h405v-71h-331v-239h271v-72h-271v-257h331v-71h-405v710zM309 788q-23 0 -39.5 15.5t-16.5 40.5q0 23 16.5 39t39.5 16t39.5 -16t16.5 -39q0 -24 -16.5 -40t-39.5 -16z" />
    <glyph glyph-name="Gbreve" unicode="&#x11e;" horiz-adv-x="743" 
d="M411 -8q-77 0 -143 27.5t-115 76.5t-77 115.5t-28 143.5t28 143.5t76.5 115t114.5 76.5t143 28q41 0 79.5 -8.5t73 -23.5t63 -36t49.5 -45l-53 -48q-37 41 -90.5 65.5t-121.5 24.5q-61 0 -113.5 -22.5t-91 -61.5t-60.5 -92.5t-22 -115.5t22 -115.5t60.5 -92.5t91 -61.5
t114.5 -22.5q63 0 114.5 17.5t80.5 42.5v205h-227l32 72h269v-312q-17 -18 -44 -35.5t-62 -31t-76.5 -21.5t-86.5 -8zM394 774q-34 0 -61.5 10.5t-47 28.5t-30.5 42t-12 52h53q4 -37 29 -60.5t70 -23.5t70.5 23.5t29.5 60.5h53q-2 -28 -13 -52t-31 -42t-47.5 -28.5
t-62.5 -10.5z" />
    <glyph glyph-name="Gcircumflex" unicode="&#x11c;" horiz-adv-x="743" 
d="M411 -8q-77 0 -143 27.5t-115 76.5t-77 115.5t-28 143.5t28 143.5t76.5 115t114.5 76.5t143 28q41 0 79.5 -8.5t73 -23.5t63 -36t49.5 -45l-53 -48q-37 41 -90.5 65.5t-121.5 24.5q-61 0 -113.5 -22.5t-91 -61.5t-60.5 -92.5t-22 -115.5t22 -115.5t60.5 -92.5t91 -61.5
t114.5 -22.5q63 0 114.5 17.5t80.5 42.5v205h-227l32 72h269v-312q-17 -18 -44 -35.5t-62 -31t-76.5 -21.5t-86.5 -8zM224 817l171 109l171 -109l-29 -49l-142 94l-142 -94z" />
    <glyph glyph-name="uni0122" unicode="&#x122;" horiz-adv-x="743" 
d="M411 -8q-77 0 -143 27.5t-115 76.5t-77 115.5t-28 143.5t28 143.5t76.5 115t114.5 76.5t143 28q41 0 79.5 -8.5t73 -23.5t63 -36t49.5 -45l-53 -48q-37 41 -90.5 65.5t-121.5 24.5q-61 0 -113.5 -22.5t-91 -61.5t-60.5 -92.5t-22 -115.5t22 -115.5t60.5 -92.5t91 -61.5
t114.5 -22.5q63 0 114.5 17.5t80.5 42.5v205h-227l32 72h269v-312q-17 -18 -44 -35.5t-62 -31t-76.5 -21.5t-86.5 -8zM365 -50h81l-106 -165h-54z" />
    <glyph glyph-name="Gdotaccent" unicode="&#x120;" horiz-adv-x="743" 
d="M411 -8q-77 0 -143 27.5t-115 76.5t-77 115.5t-28 143.5t28 143.5t76.5 115t114.5 76.5t143 28q41 0 79.5 -8.5t73 -23.5t63 -36t49.5 -45l-53 -48q-37 41 -90.5 65.5t-121.5 24.5q-61 0 -113.5 -22.5t-91 -61.5t-60.5 -92.5t-22 -115.5t22 -115.5t60.5 -92.5t91 -61.5
t114.5 -22.5q63 0 114.5 17.5t80.5 42.5v205h-227l32 72h269v-312q-17 -18 -44 -35.5t-62 -31t-76.5 -21.5t-86.5 -8zM395 788q-23 0 -39.5 15.5t-16.5 40.5q0 23 16.5 39t39.5 16t39.5 -16t16.5 -39q0 -24 -16.5 -40t-39.5 -16z" />
    <glyph glyph-name="Hbar" unicode="&#x126;" horiz-adv-x="766" 
d="M100 710h74v-310h418v310h74v-710h-74v328h-418v-328h-74v710zM37 586h692v-61h-692v61z" />
    <glyph glyph-name="Hcircumflex" unicode="&#x124;" horiz-adv-x="764" 
d="M99 710h74v-310h418v310h74v-710h-74v328h-418v-328h-74v710zM211 817l171 109l171 -109l-29 -49l-142 94l-142 -94z" />
    <glyph glyph-name="Ibreve" unicode="&#x12c;" horiz-adv-x="272" 
d="M99 710h74v-710h-74v710zM135 774q-34 0 -61.5 10.5t-47 28.5t-30.5 42t-12 52h53q4 -37 29 -60.5t70 -23.5t70.5 23.5t29.5 60.5h53q-2 -28 -13 -52t-31 -42t-47.5 -28.5t-62.5 -10.5z" />
    <glyph glyph-name="Idotaccent" unicode="&#x130;" horiz-adv-x="272" 
d="M99 710h74v-710h-74v710zM136 788q-23 0 -39.5 15.5t-16.5 40.5q0 23 16.5 39t39.5 16t39.5 -16t16.5 -39q0 -24 -16.5 -40t-39.5 -16z" />
    <glyph glyph-name="Imacron" unicode="&#x12a;" horiz-adv-x="272" 
d="M99 710h74v-710h-74v710zM-8 864h288v-54h-288v54z" />
    <glyph glyph-name="Iogonek" unicode="&#x12e;" horiz-adv-x="272" 
d="M99 710h74v-710h-74v710zM120 -192q-20 0 -38 5.5t-32.5 16t-23 26.5t-8.5 37q0 19 7.5 36t19 31t26 25t28.5 17l74 -2q-39 -17 -61 -41.5t-22 -50.5q0 -23 14.5 -34.5t38.5 -11.5q11 0 20.5 3t15.5 5v-49q-13 -8 -28 -10.5t-31 -2.5z" />
    <glyph glyph-name="Itilde" unicode="&#x128;" horiz-adv-x="272" 
d="M99 710h74v-710h-74v710zM-31 806q8 43 35.5 66.5t61.5 23.5q22 0 40 -8t34.5 -17t31 -17t28.5 -8q23 0 34.5 12.5t16.5 37.5h55l-3 -16q-8 -42 -34.5 -66t-62.5 -24q-21 0 -39.5 8t-35 17t-31.5 17t-30 8q-22 0 -33 -13t-16 -38h-55z" />
    <glyph glyph-name="uni1ECA" unicode="&#x1eca;" horiz-adv-x="272" 
d="M99 710h74v-710h-74v710zM136 -191q-23 0 -39.5 15.5t-16.5 40.5q0 23 16.5 39t39.5 16t39.5 -16t16.5 -39q0 -24 -16.5 -40t-39.5 -16z" />
    <glyph glyph-name="Jcircumflex" unicode="&#x134;" horiz-adv-x="523" 
d="M226 -8q-42 0 -79.5 13t-65 39t-43.5 63.5t-16 87.5h74q0 -66 36.5 -99t93.5 -33q58 0 94.5 33t36.5 99v515h74v-519q0 -50 -16.5 -87.5t-44.5 -62t-65 -37t-79 -12.5zM222 817l171 109l171 -109l-29 -49l-142 94l-142 -94z" />
    <glyph glyph-name="uni0136" unicode="&#x136;" horiz-adv-x="626" 
d="M99 710h74v-359l339 359h92l-341 -360l371 -350h-100l-361 339v-339h-74v710zM306 -50h81l-106 -165h-54z" />
    <glyph glyph-name="Lacute" unicode="&#x139;" horiz-adv-x="515" 
d="M99 710h74v-638h325v-72h-399v710zM279.982 913h-87.9941l-83.9951 -145h59.9971z" />
    <glyph glyph-name="Lcaron" unicode="&#x13d;" horiz-adv-x="517" 
d="M99 710h74v-638h325v-72h-399v710zM298 710h71l-47 -166h-50z" />
    <glyph glyph-name="uni013B" unicode="&#x13b;" horiz-adv-x="515" 
d="M99 710h74v-638h325v-72h-399v710zM255 -50h81l-106 -165h-54z" />
    <glyph glyph-name="Ldot" unicode="&#x13f;" horiz-adv-x="520" 
d="M99 710h74v-638h325v-72h-399v710zM386 321q-23 0 -39.5 15.5t-16.5 40.5q0 23 16.5 39t39.5 16t39.5 -16t16.5 -39q0 -24 -16.5 -40t-39.5 -16z" />
    <glyph glyph-name="Lslash" unicode="&#x141;" horiz-adv-x="597" 
d="M180 710h74v-638h325v-72h-399v710zM17 273l366 242l35 -52l-367 -242z" />
    <glyph glyph-name="Eng" unicode="&#x14a;" horiz-adv-x="788" 
d="M689 -34q0 -150 -150 -150h-32v62h14q50 0 72 23.5t22 72.5v97l-442 472v-543h-74v718l516 -551v543h74v-744z" />
    <glyph glyph-name="Nacute" unicode="&#x143;" horiz-adv-x="788" 
d="M173 543v-543h-74v718l516 -551v543h74v-718zM534.968 913h-87.9951l-83.9951 -145h59.9971z" />
    <glyph glyph-name="Ncaron" unicode="&#x147;" horiz-adv-x="788" 
d="M173 543v-543h-74v718l516 -551v543h74v-718zM562.966 877.946l-170.989 -108.993l-170.99 108.993l28.998 48.9971l141.992 -93.9941l141.991 93.9941z" />
    <glyph glyph-name="uni0145" unicode="&#x145;" horiz-adv-x="788" 
d="M173 543v-543h-74v718l516 -551v543h74v-718zM375 -50h81l-106 -165h-54z" />
    <glyph glyph-name="OE" unicode="&#x152;" horiz-adv-x="1086" 
d="M411 -8q-77 0 -143 27.5t-115 76.5t-77 115.5t-28 143.5t28 143.5t77 115t115 76.5t143 28q63 0 118.5 -19t101.5 -53v64h406v-72h-335v-63q28 -37 46 -81t23 -94h205v-72h-203q-4 -56 -22.5 -104.5t-48.5 -89.5v-62h335v-72h-406v64q-46 -35 -101.5 -53.5t-118.5 -18.5z
M411 64q61 0 113.5 22.5t90.5 61.5t60 92t22 115t-22 115t-60 92t-90.5 61.5t-113.5 22.5q-62 0 -114 -22.5t-90.5 -61.5t-60 -92t-21.5 -115t21.5 -115t60 -92t90.5 -61.5t114 -22.5z" />
    <glyph glyph-name="Obreve" unicode="&#x14e;" horiz-adv-x="822" 
d="M411 -8q-77 0 -143 27.5t-115 76.5t-77 115.5t-28 143.5t28 143.5t77 115t115 76.5t143 28q76 0 142.5 -28t115.5 -76.5t77 -115t28 -143.5t-28 -143.5t-77 -115.5t-115.5 -76.5t-142.5 -27.5zM411 64q61 0 113.5 22.5t90.5 61.5t60 92t22 115t-22 115t-60 92t-90.5 61.5
t-113.5 22.5q-62 0 -114 -22.5t-90.5 -61.5t-60 -92t-21.5 -115t21.5 -115t60 -92t90.5 -61.5t114 -22.5zM409 774q-34 0 -61.5 10.5t-47 28.5t-30.5 42t-12 52h53q4 -37 29 -60.5t70 -23.5t70.5 23.5t29.5 60.5h53q-2 -28 -13 -52t-31 -42t-47.5 -28.5t-62.5 -10.5z" />
    <glyph glyph-name="Ohungarumlaut" unicode="&#x150;" horiz-adv-x="822" 
d="M411 -8q-77 0 -143 27.5t-115 76.5t-77 115.5t-28 143.5t28 143.5t77 115t115 76.5t143 28q76 0 142.5 -28t115.5 -76.5t77 -115t28 -143.5t-28 -143.5t-77 -115.5t-115.5 -76.5t-142.5 -27.5zM411 64q61 0 113.5 22.5t90.5 61.5t60 92t22 115t-22 115t-60 92t-90.5 61.5
t-113.5 22.5q-62 0 -114 -22.5t-90.5 -61.5t-60 -92t-21.5 -115t21.5 -115t60 -92t90.5 -61.5t114 -22.5zM374 913h84l-112 -145h-57zM574 913h84l-112 -145h-57z" />
    <glyph glyph-name="Omacron" unicode="&#x14c;" horiz-adv-x="822" 
d="M411 -8q-77 0 -143 27.5t-115 76.5t-77 115.5t-28 143.5t28 143.5t77 115t115 76.5t143 28q76 0 142.5 -28t115.5 -76.5t77 -115t28 -143.5t-28 -143.5t-77 -115.5t-115.5 -76.5t-142.5 -27.5zM411 64q61 0 113.5 22.5t90.5 61.5t60 92t22 115t-22 115t-60 92t-90.5 61.5
t-113.5 22.5q-62 0 -114 -22.5t-90.5 -61.5t-60 -92t-21.5 -115t21.5 -115t60 -92t90.5 -61.5t114 -22.5zM266 864h288v-54h-288v54z" />
    <glyph glyph-name="uni1ECC" unicode="&#x1ecc;" horiz-adv-x="822" 
d="M411 -8q-77 0 -143 27.5t-115 76.5t-77 115.5t-28 143.5t28 143.5t77 115t115 76.5t143 28q76 0 142.5 -28t115.5 -76.5t77 -115t28 -143.5t-28 -143.5t-77 -115.5t-115.5 -76.5t-142.5 -27.5zM411 64q61 0 113.5 22.5t90.5 61.5t60 92t22 115t-22 115t-60 92t-90.5 61.5
t-113.5 22.5q-62 0 -114 -22.5t-90.5 -61.5t-60 -92t-21.5 -115t21.5 -115t60 -92t90.5 -61.5t114 -22.5zM409 -191q-23 0 -39.5 15.5t-16.5 40.5q0 23 16.5 39t39.5 16t39.5 -16t16.5 -39q0 -24 -16.5 -40t-39.5 -16z" />
    <glyph glyph-name="Racute" unicode="&#x154;" horiz-adv-x="612" 
d="M99 710h205q106 0 165 -53.5t59 -141.5q0 -33 -9.5 -64t-30.5 -57t-55 -44.5t-82 -25.5l255 -324h-90l-250 320h-93v-320h-74v710zM301 386q75 0 113 34t38 93q0 60 -38 94.5t-113 34.5h-128v-256h128zM441.973 913h-87.9941l-83.9951 -145h59.9961z" />
    <glyph glyph-name="Rcaron" unicode="&#x158;" horiz-adv-x="612" 
d="M99 710h205q106 0 165 -53.5t59 -141.5q0 -33 -9.5 -64t-30.5 -57t-55 -44.5t-82 -25.5l255 -324h-90l-250 320h-93v-320h-74v710zM301 386q75 0 113 34t38 93q0 60 -38 94.5t-113 34.5h-128v-256h128zM469.972 877.946l-170.99 -108.993l-170.989 108.993
l28.998 48.9971l141.991 -93.9941l141.991 93.9941z" />
    <glyph glyph-name="uni0156" unicode="&#x156;" horiz-adv-x="612" 
d="M99 710h205q106 0 165 -53.5t59 -141.5q0 -33 -9.5 -64t-30.5 -57t-55 -44.5t-82 -25.5l255 -324h-90l-250 320h-93v-320h-74v710zM301 386q75 0 113 34t38 93q0 60 -38 94.5t-113 34.5h-128v-256h128zM295 -50h81l-106 -165h-54z" />
    <glyph glyph-name="Sacute" unicode="&#x15a;" horiz-adv-x="524" 
d="M260 -8q-37 0 -70.5 8.5t-62.5 23.5t-52 34.5t-39 41.5l57 49q26 -35 69.5 -60.5t97.5 -25.5q69 0 109 30t40 84q0 52 -34 84.5t-93 58.5l-68 29q-81 35 -116.5 83t-35.5 113q0 39 17 71t45 54.5t65 35t76 12.5q59 0 108 -23t84 -65l-53 -52q-27 34 -61 51.5t-81 17.5
q-25 0 -48 -7t-40 -20t-27.5 -32.5t-10.5 -43.5q0 -43 25.5 -74t86.5 -58l68 -29q36 -16 66.5 -35t53 -43t35 -54t12.5 -67q0 -42 -15 -77.5t-44 -61t-70.5 -39.5t-93.5 -14zM406.976 913h-87.9951l-83.9951 -145h59.9971z" />
    <glyph glyph-name="Scaron" unicode="&#x160;" horiz-adv-x="524" 
d="M260 -8q-37 0 -70.5 8.5t-62.5 23.5t-52 34.5t-39 41.5l57 49q26 -35 69.5 -60.5t97.5 -25.5q69 0 109 30t40 84q0 52 -34 84.5t-93 58.5l-68 29q-81 35 -116.5 83t-35.5 113q0 39 17 71t45 54.5t65 35t76 12.5q59 0 108 -23t84 -65l-53 -52q-27 34 -61 51.5t-81 17.5
q-25 0 -48 -7t-40 -20t-27.5 -32.5t-10.5 -43.5q0 -43 25.5 -74t86.5 -58l68 -29q36 -16 66.5 -35t53 -43t35 -54t12.5 -67q0 -42 -15 -77.5t-44 -61t-70.5 -39.5t-93.5 -14zM434.974 877.946l-170.989 -108.993l-170.99 108.993l28.998 48.9971l141.992 -93.9941
l141.991 93.9941z" />
    <glyph glyph-name="Scedilla" unicode="&#x15e;" horiz-adv-x="524" 
d="M260 -8q-37 0 -70.5 8.5t-62.5 23.5t-52 34.5t-39 41.5l57 49q26 -35 69.5 -60.5t97.5 -25.5q69 0 109 30t40 84q0 52 -34 84.5t-93 58.5l-68 29q-81 35 -116.5 83t-35.5 113q0 39 17 71t45 54.5t65 35t76 12.5q59 0 108 -23t84 -65l-53 -52q-27 34 -61 51.5t-81 17.5
q-25 0 -48 -7t-40 -20t-27.5 -32.5t-10.5 -43.5q0 -43 25.5 -74t86.5 -58l68 -29q36 -16 66.5 -35t53 -43t35 -54t12.5 -67q0 -42 -15 -77.5t-44 -61t-70.5 -39.5t-93.5 -14zM271 0h50l-67 -165h-80z" />
    <glyph glyph-name="Scircumflex" unicode="&#x15c;" horiz-adv-x="524" 
d="M260 -8q-37 0 -70.5 8.5t-62.5 23.5t-52 34.5t-39 41.5l57 49q26 -35 69.5 -60.5t97.5 -25.5q69 0 109 30t40 84q0 52 -34 84.5t-93 58.5l-68 29q-81 35 -116.5 83t-35.5 113q0 39 17 71t45 54.5t65 35t76 12.5q59 0 108 -23t84 -65l-53 -52q-27 34 -61 51.5t-81 17.5
q-25 0 -48 -7t-40 -20t-27.5 -32.5t-10.5 -43.5q0 -43 25.5 -74t86.5 -58l68 -29q36 -16 66.5 -35t53 -43t35 -54t12.5 -67q0 -42 -15 -77.5t-44 -61t-70.5 -39.5t-93.5 -14zM93 817l171 109l171 -109l-29 -49l-142 94l-142 -94z" />
    <glyph glyph-name="uni0218" unicode="&#x218;" horiz-adv-x="524" 
d="M260 -8q-37 0 -70.5 8.5t-62.5 23.5t-52 34.5t-39 41.5l57 49q26 -35 69.5 -60.5t97.5 -25.5q69 0 109 30t40 84q0 52 -34 84.5t-93 58.5l-68 29q-81 35 -116.5 83t-35.5 113q0 39 17 71t45 54.5t65 35t76 12.5q59 0 108 -23t84 -65l-53 -52q-27 34 -61 51.5t-81 17.5
q-25 0 -48 -7t-40 -20t-27.5 -32.5t-10.5 -43.5q0 -43 25.5 -74t86.5 -58l68 -29q36 -16 66.5 -35t53 -43t35 -54t12.5 -67q0 -42 -15 -77.5t-44 -61t-70.5 -39.5t-93.5 -14zM218 -50h81l-106 -165h-54z" />
    <glyph glyph-name="Tbar" unicode="&#x166;" horiz-adv-x="555" 
d="M240 638h-206v72h487v-72h-207v-638h-74v638zM78 405h399v-61h-399v61z" />
    <glyph glyph-name="Tcaron" unicode="&#x164;" horiz-adv-x="517" 
d="M221 638h-206v72h487v-72h-207v-638h-74v638zM427.974 877.946l-170.989 -108.993l-170.989 108.993l28.998 48.9971l141.991 -93.9941l141.991 93.9941z" />
    <glyph glyph-name="uni0162" unicode="&#x162;" horiz-adv-x="517" 
d="M221 638h-206v72h487v-72h-207v-638h-74v638zM215 -50h81l-106 -165h-54z" />
    <glyph glyph-name="uni021A" unicode="&#x21a;" horiz-adv-x="517" 
d="M221 638h-206v72h487v-72h-207v-638h-74v638zM215 -50h81l-106 -165h-54z" />
    <glyph glyph-name="Ubreve" unicode="&#x16c;" horiz-adv-x="736" 
d="M368 -8q-62 0 -113 18.5t-88 54t-57 87t-20 116.5v442h74v-445q0 -50 14.5 -88t41.5 -63.5t64.5 -38t83.5 -12.5t83.5 12.5t64.5 38t41.5 63.5t14.5 88v445h74v-442q0 -65 -20 -116.5t-56.5 -87t-88 -54t-113.5 -18.5zM365 774q-34 0 -61.5 10.5t-47 28.5t-30.5 42
t-12 52h53q4 -37 29 -60.5t70 -23.5t70.5 23.5t29.5 60.5h53q-2 -28 -13 -52t-31 -42t-47.5 -28.5t-62.5 -10.5z" />
    <glyph glyph-name="Uhungarumlaut" unicode="&#x170;" horiz-adv-x="736" 
d="M368 -8q-62 0 -113 18.5t-88 54t-57 87t-20 116.5v442h74v-445q0 -50 14.5 -88t41.5 -63.5t64.5 -38t83.5 -12.5t83.5 12.5t64.5 38t41.5 63.5t14.5 88v445h74v-442q0 -65 -20 -116.5t-56.5 -87t-88 -54t-113.5 -18.5zM330 913h84l-112 -145h-57zM530 913h84l-112 -145
h-57z" />
    <glyph glyph-name="Umacron" unicode="&#x16a;" horiz-adv-x="736" 
d="M368 -8q-62 0 -113 18.5t-88 54t-57 87t-20 116.5v442h74v-445q0 -50 14.5 -88t41.5 -63.5t64.5 -38t83.5 -12.5t83.5 12.5t64.5 38t41.5 63.5t14.5 88v445h74v-442q0 -65 -20 -116.5t-56.5 -87t-88 -54t-113.5 -18.5zM222 864h288v-54h-288v54z" />
    <glyph glyph-name="Uogonek" unicode="&#x172;" horiz-adv-x="736" 
d="M368 -8q-62 0 -113 18.5t-88 54t-57 87t-20 116.5v442h74v-445q0 -50 14.5 -88t41.5 -63.5t64.5 -38t83.5 -12.5t83.5 12.5t64.5 38t41.5 63.5t14.5 88v445h74v-442q0 -65 -20 -116.5t-56.5 -87t-88 -54t-113.5 -18.5zM380 -192q-20 0 -38 5.5t-32.5 16t-23 26.5t-8.5 37
q0 19 7.5 36t19 31t26 25t28.5 17l74 -2q-39 -17 -61 -41.5t-22 -50.5q0 -23 14.5 -34.5t38.5 -11.5q11 0 20.5 3t15.5 5v-49q-13 -8 -28 -10.5t-31 -2.5z" />
    <glyph glyph-name="Uring" unicode="&#x16e;" horiz-adv-x="736" 
d="M368 -8q-62 0 -113 18.5t-88 54t-57 87t-20 116.5v442h74v-445q0 -50 14.5 -88t41.5 -63.5t64.5 -38t83.5 -12.5t83.5 12.5t64.5 38t41.5 63.5t14.5 88v445h74v-442q0 -65 -20 -116.5t-56.5 -87t-88 -54t-113.5 -18.5zM366 752q-20 0 -37 7t-29.5 19.5t-20 29t-7.5 35.5
q0 39 27.5 65t66.5 26t66.5 -26t27.5 -65q0 -19 -7.5 -35.5t-20 -29t-30 -19.5t-36.5 -7zM366 792q21 0 36 14t15 37t-15 37t-36 14t-36 -14t-15 -37t15 -37t36 -14z" />
    <glyph glyph-name="Utilde" unicode="&#x168;" horiz-adv-x="736" 
d="M368 -8q-62 0 -113 18.5t-88 54t-57 87t-20 116.5v442h74v-445q0 -50 14.5 -88t41.5 -63.5t64.5 -38t83.5 -12.5t83.5 12.5t64.5 38t41.5 63.5t14.5 88v445h74v-442q0 -65 -20 -116.5t-56.5 -87t-88 -54t-113.5 -18.5zM199 806q8 43 35.5 66.5t61.5 23.5q22 0 40 -8
t34.5 -17t31 -17t28.5 -8q23 0 34.5 12.5t16.5 37.5h55l-3 -16q-8 -42 -34.5 -66t-62.5 -24q-21 0 -39.5 8t-35 17t-31.5 17t-30 8q-22 0 -33 -13t-16 -38h-55z" />
    <glyph glyph-name="uni1EE4" unicode="&#x1ee4;" horiz-adv-x="736" 
d="M368 -8q-62 0 -113 18.5t-88 54t-57 87t-20 116.5v442h74v-445q0 -50 14.5 -88t41.5 -63.5t64.5 -38t83.5 -12.5t83.5 12.5t64.5 38t41.5 63.5t14.5 88v445h74v-442q0 -65 -20 -116.5t-56.5 -87t-88 -54t-113.5 -18.5zM368 -191q-23 0 -39.5 15.5t-16.5 40.5
q0 23 16.5 39t39.5 16t39.5 -16t16.5 -39q0 -24 -16.5 -40t-39.5 -16z" />
    <glyph glyph-name="Wacute" unicode="&#x1e82;" horiz-adv-x="885" 
d="M12 710h76l165 -518l189 526l190 -526l165 518h76l-236 -718l-194 538l-195 -538zM584.964 913h-87.9941l-83.9951 -145h59.9961z" />
    <glyph glyph-name="Wcircumflex" unicode="&#x174;" horiz-adv-x="885" 
d="M12 710h76l165 -518l189 526l190 -526l165 518h76l-236 -718l-194 538l-195 -538zM271 817l171 109l171 -109l-29 -49l-142 94l-142 -94z" />
    <glyph glyph-name="Wdieresis" unicode="&#x1e84;" horiz-adv-x="885" 
d="M12 710h76l165 -518l189 526l190 -526l165 518h76l-236 -718l-194 538l-195 -538zM554 788q-23 0 -39.5 16t-16.5 40q0 23 16.5 39t39.5 16t39 -16t16 -39q0 -25 -16 -40.5t-39 -15.5zM332 788q-23 0 -39.5 16t-16.5 40q0 23 16 39t40 16q23 0 39 -16t16 -39
q0 -25 -16.5 -40.5t-38.5 -15.5z" />
    <glyph glyph-name="Wgrave" unicode="&#x1e80;" horiz-adv-x="885" 
d="M12 710h76l165 -518l189 526l190 -526l165 518h76l-236 -718l-194 538l-195 -538zM296 913h88l84 -145h-60z" />
    <glyph glyph-name="Ycircumflex" unicode="&#x176;" horiz-adv-x="616" 
d="M271 301l-260 409h86l211 -337l211 337h86l-260 -409v-301h-74v301zM138 817l171 109l171 -109l-29 -49l-142 94l-142 -94z" />
    <glyph glyph-name="Ydieresis" unicode="&#x178;" horiz-adv-x="616" 
d="M271 301l-260 409h86l211 -337l211 337h86l-260 -409v-301h-74v301zM421 788q-23 0 -39.5 16t-16.5 40q0 23 16.5 39t39.5 16t39 -16t16 -39q0 -25 -16 -40.5t-39 -15.5zM199 788q-23 0 -39.5 16t-16.5 40q0 23 16 39t40 16q23 0 39 -16t16 -39q0 -25 -16.5 -40.5
t-38.5 -15.5z" />
    <glyph glyph-name="Ygrave" unicode="&#x1ef2;" horiz-adv-x="616" 
d="M271 301l-260 409h86l211 -337l211 337h86l-260 -409v-301h-74v301zM162 913h88l84 -145h-60z" />
    <glyph glyph-name="uni0232" unicode="&#x232;" horiz-adv-x="616" 
d="M271 301l-260 409h86l211 -337l211 337h86l-260 -409v-301h-74v301zM165 864h288v-54h-288v54z" />
    <glyph glyph-name="Zacute" unicode="&#x179;" horiz-adv-x="584" 
d="M426 638h-372v72h499l-417 -638h419v-72h-547zM448.973 913h-87.9951l-83.9941 -145h59.9961z" />
    <glyph glyph-name="Zcaron" unicode="&#x17d;" horiz-adv-x="584" 
d="M426 638h-372v72h499l-417 -638h419v-72h-547zM476.971 877.946l-170.989 -108.993l-170.989 108.993l28.998 48.9971l141.991 -93.9941l141.991 93.9941z" />
    <glyph glyph-name="Zdotaccent" unicode="&#x17b;" horiz-adv-x="584" 
d="M426 638h-372v72h499l-417 -638h419v-72h-547zM306 788q-23 0 -39.5 15.5t-16.5 40.5q0 23 16.5 39t39.5 16t39.5 -16t16.5 -39q0 -24 -16.5 -40t-39.5 -16z" />
    <glyph glyph-name="uni1E9E" unicode="&#x1e9e;" horiz-adv-x="626" 
d="M99 710h426l-148 -260q94 -11 148.5 -68t54.5 -154q0 -55 -19 -97.5t-52 -71.5t-79 -44t-100 -15h-37v72h43q36 0 67 10.5t53.5 30t35.5 48.5t13 67q0 37 -13 66.5t-35.5 49.5t-53.5 30.5t-67 10.5h-43v63l112 194h-230v-642h-76v710z" />
    <glyph glyph-name="uni018F" unicode="&#x18f;" horiz-adv-x="782" 
d="M388 -7q-86 0 -151.5 30.5t-109.5 82.5t-66.5 121.5t-22.5 147.5h618q-3 58 -25 108t-59 86.5t-86 57.5t-106 21q-75 0 -133 -26t-106 -68l-48 52q51 51 122 82t165 31q75 0 139.5 -27.5t112.5 -76.5t75 -115t27 -144q0 -76 -26.5 -142.5t-73 -115.5t-110 -77t-136.5 -28
zM388 64q52 0 97.5 17.5t81 49t58 76t29.5 97.5h-533q6 -51 26.5 -95t54.5 -76t80.5 -50.5t105.5 -18.5z" />
    <glyph glyph-name="abreve" unicode="&#x103;" horiz-adv-x="618" 
d="M469 58q-32 -32 -75.5 -49t-93.5 -17q-56 0 -103 20t-81 55t-53 82t-19 101t19 101t53 82t81 55t103 20q50 0 93.5 -17t75.5 -49v58h70v-500h-70v58zM301 58q57 0 100 24t68 62v212q-24 38 -67.5 62t-100.5 24q-41 0 -74.5 -15t-58.5 -41t-38.5 -61t-13.5 -75t13.5 -75
t38.5 -61t58.5 -41t74.5 -15zM313 577q-72 0 -110.5 38t-42.5 95h56q3 -37 27.5 -60.5t69.5 -23.5t69.5 23.5t28.5 60.5h55q-4 -57 -42.5 -95t-110.5 -38z" />
    <glyph glyph-name="amacron" unicode="&#x101;" horiz-adv-x="618" 
d="M469 58q-32 -32 -75.5 -49t-93.5 -17q-56 0 -103 20t-81 55t-53 82t-19 101t19 101t53 82t81 55t103 20q50 0 93.5 -17t75.5 -49v58h70v-500h-70v58zM301 58q57 0 100 24t68 62v212q-24 38 -67.5 62t-100.5 24q-41 0 -74.5 -15t-58.5 -41t-38.5 -61t-13.5 -75t13.5 -75
t38.5 -61t58.5 -41t74.5 -15zM169 679h288v-54h-288v54z" />
    <glyph glyph-name="aogonek" unicode="&#x105;" horiz-adv-x="618" 
d="M469 58q-32 -32 -75.5 -49t-93.5 -17q-56 0 -103 20t-81 55t-53 82t-19 101t19 101t53 82t81 55t103 20q50 0 93.5 -17t75.5 -49v58h70v-500h-70v58zM301 58q57 0 100 24t68 62v212q-24 38 -67.5 62t-100.5 24q-41 0 -74.5 -15t-58.5 -41t-38.5 -61t-13.5 -75t13.5 -75
t38.5 -61t58.5 -41t74.5 -15zM486 -192q-39 0 -69 21.5t-30 63.5q0 19 7.5 36t19.5 31t26.5 25t28.5 17l70 -2q-38 -17 -60.5 -41.5t-22.5 -50.5q0 -23 14.5 -34.5t38.5 -11.5q12 0 21 3l15 5v-49q-12 -8 -27.5 -10.5t-31.5 -2.5z" />
    <glyph glyph-name="cacute" unicode="&#x107;" horiz-adv-x="521" 
d="M301 -8q-56 0 -103 20t-81.5 55t-53.5 82t-19 101t19 101t53.5 82t81.5 55t103 20q61 0 108.5 -22t81.5 -56l-45 -49q-26 26 -62 43.5t-83 17.5q-41 0 -74.5 -15t-58.5 -41t-38.5 -61t-13.5 -75t13.5 -75t38.5 -61t58.5 -41t74.5 -15q47 0 83 17.5t62 43.5l45 -49
q-34 -34 -81.5 -56t-108.5 -22zM444.973 710h-87.9941l-89.9951 -160h58.9971z" />
    <glyph glyph-name="ccaron" unicode="&#x10d;" horiz-adv-x="521" 
d="M301 -8q-56 0 -103 20t-81.5 55t-53.5 82t-19 101t19 101t53.5 82t81.5 55t103 20q61 0 108.5 -22t81.5 -56l-45 -49q-26 26 -62 43.5t-83 17.5q-41 0 -74.5 -15t-58.5 -41t-38.5 -61t-13.5 -75t13.5 -75t38.5 -61t58.5 -41t74.5 -15q47 0 83 17.5t62 43.5l45 -49
q-34 -34 -81.5 -56t-108.5 -22zM141.991 671.959l30.998 44.9971l126.992 -93.9941l126.992 93.9941l30.998 -44.9971l-157.99 -115.993z" />
    <glyph glyph-name="ccircumflex" unicode="&#x109;" horiz-adv-x="521" 
d="M301 -8q-56 0 -103 20t-81.5 55t-53.5 82t-19 101t19 101t53.5 82t81.5 55t103 20q61 0 108.5 -22t81.5 -56l-45 -49q-26 26 -62 43.5t-83 17.5q-41 0 -74.5 -15t-58.5 -41t-38.5 -61t-13.5 -75t13.5 -75t38.5 -61t58.5 -41t74.5 -15q47 0 83 17.5t62 43.5l45 -49
q-34 -34 -81.5 -56t-108.5 -22zM459 602l-31 -45l-127 94l-127 -94l-31 45l158 116z" />
    <glyph glyph-name="cdotaccent" unicode="&#x10b;" horiz-adv-x="521" 
d="M301 -8q-56 0 -103 20t-81.5 55t-53.5 82t-19 101t19 101t53.5 82t81.5 55t103 20q61 0 108.5 -22t81.5 -56l-45 -49q-26 26 -62 43.5t-83 17.5q-41 0 -74.5 -15t-58.5 -41t-38.5 -61t-13.5 -75t13.5 -75t38.5 -61t58.5 -41t74.5 -15q47 0 83 17.5t62 43.5l45 -49
q-34 -34 -81.5 -56t-108.5 -22zM301 576q-23 0 -39.5 15.5t-16.5 40.5q0 23 16.5 39t39.5 16t39.5 -16t16.5 -39q0 -24 -16.5 -40t-39.5 -16z" />
    <glyph glyph-name="dcaron" unicode="&#x10f;" horiz-adv-x="642" 
d="M469 0v58q-32 -32 -75 -49t-94 -17q-56 0 -103 20t-81 55t-53 82t-19 101t19 101t53 82t81 55t103 20q51 0 94 -17t75 -49v268h70v-710h-70zM301 442q-41 0 -74.5 -15t-58.5 -41t-38.5 -61t-13.5 -75t13.5 -75t38.5 -61t58.5 -41t74.5 -15q57 0 100.5 24t67.5 62v212
q-24 38 -67.5 62t-100.5 24zM631 710h71l-47 -166h-50z" />
    <glyph glyph-name="dcroat" unicode="&#x111;" horiz-adv-x="618" 
d="M469 0v58q-32 -32 -75 -49t-94 -17q-56 0 -103 20t-81 55t-53 82t-19 101t19 101t53 82t81 55t103 20q51 0 94 -17t75 -49v268h70v-710h-70zM301 442q-41 0 -74.5 -15t-58.5 -41t-38.5 -61t-13.5 -75t13.5 -75t38.5 -61t58.5 -41t74.5 -15q57 0 100.5 24t67.5 62v212
q-24 38 -67.5 62t-100.5 24zM294 636h319v-54h-319v54z" />
    <glyph glyph-name="ebreve" unicode="&#x115;" horiz-adv-x="573" 
d="M301 -8q-56 0 -103 20t-81.5 55t-53.5 82t-19 101t19 101t53 82t79.5 55t98.5 20q55 0 100 -20t76.5 -56t48.5 -86t17 -110h-421q3 -40 18.5 -72.5t40.5 -56t57.5 -36.5t69.5 -13q50 0 89.5 18.5t65.5 44.5l45 -49q-33 -34 -84.5 -57t-115.5 -23zM290 443q-28 0 -55.5 -9
t-50.5 -27.5t-40 -45.5t-24 -63h337q-9 72 -55 109t-112 36zM295 577q-72 0 -110.5 38t-42.5 95h56q3 -37 27.5 -60.5t69.5 -23.5t69.5 23.5t28.5 60.5h55q-4 -57 -42.5 -95t-110.5 -38z" />
    <glyph glyph-name="ecaron" unicode="&#x11b;" horiz-adv-x="573" 
d="M301 -8q-56 0 -103 20t-81.5 55t-53.5 82t-19 101t19 101t53 82t79.5 55t98.5 20q55 0 100 -20t76.5 -56t48.5 -86t17 -110h-421q3 -40 18.5 -72.5t40.5 -56t57.5 -36.5t69.5 -13q50 0 89.5 18.5t65.5 44.5l45 -49q-33 -34 -84.5 -57t-115.5 -23zM290 443q-28 0 -55.5 -9
t-50.5 -27.5t-40 -45.5t-24 -63h337q-9 72 -55 109t-112 36zM135.992 671.959l30.998 44.9971l126.992 -93.9941l126.992 93.9941l30.998 -44.9971l-157.99 -115.993z" />
    <glyph glyph-name="emacron" unicode="&#x113;" horiz-adv-x="573" 
d="M301 -8q-56 0 -103 20t-81.5 55t-53.5 82t-19 101t19 101t53 82t79.5 55t98.5 20q55 0 100 -20t76.5 -56t48.5 -86t17 -110h-421q3 -40 18.5 -72.5t40.5 -56t57.5 -36.5t69.5 -13q50 0 89.5 18.5t65.5 44.5l45 -49q-33 -34 -84.5 -57t-115.5 -23zM290 443q-28 0 -55.5 -9
t-50.5 -27.5t-40 -45.5t-24 -63h337q-9 72 -55 109t-112 36zM151 679h288v-54h-288v54z" />
    <glyph glyph-name="eogonek" unicode="&#x119;" horiz-adv-x="572" 
d="M493 -179q-13 -8 -28 -10.5t-31 -2.5q-43 0 -74.5 23.5t-31.5 69.5q0 28 11.5 53t29.5 47q-16 -5 -32 -7t-36 -2q-56 0 -103 20t-81.5 55t-53.5 82t-19 101t19 101t53 82t79.5 55t98.5 20q52 0 96 -18.5t76.5 -53.5t51 -85.5t18.5 -114.5h-420q2 -42 18 -75t41.5 -56
t58 -35t67.5 -12q50 0 89.5 18.5t65.5 44.5l45 -49q-18 -16 -36.5 -34t-33.5 -38t-24.5 -41.5t-9.5 -42.5q0 -30 18 -42t42 -12q11 0 20.5 3t15.5 5v-49zM290 443q-30 0 -58 -9.5t-50.5 -28.5t-39 -46t-22.5 -61h337q-9 72 -55 108.5t-112 36.5z" />
    <glyph glyph-name="edotaccent" unicode="&#x117;" horiz-adv-x="573" 
d="M301 -8q-56 0 -103 20t-81.5 55t-53.5 82t-19 101t19 101t53 82t79.5 55t98.5 20q55 0 100 -20t76.5 -56t48.5 -86t17 -110h-421q3 -40 18.5 -72.5t40.5 -56t57.5 -36.5t69.5 -13q50 0 89.5 18.5t65.5 44.5l45 -49q-33 -34 -84.5 -57t-115.5 -23zM290 443q-28 0 -55.5 -9
t-50.5 -27.5t-40 -45.5t-24 -63h337q-9 72 -55 109t-112 36zM295 576q-23 0 -39.5 15.5t-16.5 40.5q0 23 16.5 39t39.5 16t39.5 -16t16.5 -39q0 -24 -16.5 -40t-39.5 -16z" />
    <glyph glyph-name="gbreve" unicode="&#x11f;" horiz-adv-x="611" 
d="M292 -194q-56 0 -113 16.5t-99 46.5l38 59q32 -25 78.5 -41t97.5 -16q37 0 70.5 8t58 25t39 43.5t14.5 63.5q0 17 -3.5 37t-10.5 34q-32 -32 -75 -50t-95 -18q-55 0 -100.5 19t-78 52t-50.5 78t-18 98q0 52 18 97.5t50.5 78.5t78 52t100.5 19q51 0 93 -17t74 -49v58h70
v-393q20 -52 20 -103q0 -54 -22.5 -91.5t-58.5 -61.5t-82 -34.5t-94 -10.5zM294 80q56 0 99 24t66 62v190q-23 38 -66 62t-99 24q-39 0 -71.5 -14t-56 -38t-36.5 -57t-13 -72t13 -72t36.5 -57t56 -38t71.5 -14zM292 577q-72 0 -110.5 38t-42.5 95h56q3 -37 27.5 -60.5
t69.5 -23.5t69.5 23.5t28.5 60.5h55q-4 -57 -42.5 -95t-110.5 -38z" />
    <glyph glyph-name="gcircumflex" unicode="&#x11d;" horiz-adv-x="611" 
d="M292 -194q-56 0 -113 16.5t-99 46.5l38 59q32 -25 78.5 -41t97.5 -16q37 0 70.5 8t58 25t39 43.5t14.5 63.5q0 17 -3.5 37t-10.5 34q-32 -32 -75 -50t-95 -18q-55 0 -100.5 19t-78 52t-50.5 78t-18 98q0 52 18 97.5t50.5 78.5t78 52t100.5 19q51 0 93 -17t74 -49v58h70
v-393q20 -52 20 -103q0 -54 -22.5 -91.5t-58.5 -61.5t-82 -34.5t-94 -10.5zM294 80q56 0 99 24t66 62v190q-23 38 -66 62t-99 24q-39 0 -71.5 -14t-56 -38t-36.5 -57t-13 -72t13 -72t36.5 -57t56 -38t71.5 -14zM450 602l-31 -45l-127 94l-127 -94l-31 45l158 116z" />
    <glyph glyph-name="uni0123" unicode="&#x123;" horiz-adv-x="611" 
d="M292 -194q-56 0 -113 16.5t-99 46.5l38 59q32 -25 78.5 -41t97.5 -16q37 0 70.5 8t58 25t39 43.5t14.5 63.5q0 17 -3.5 37t-10.5 34q-32 -32 -75 -50t-95 -18q-55 0 -100.5 19t-78 52t-50.5 78t-18 98q0 52 18 97.5t50.5 78.5t78 52t100.5 19q51 0 93 -17t74 -49v58h70
v-393q20 -52 20 -103q0 -54 -22.5 -91.5t-58.5 -61.5t-82 -34.5t-94 -10.5zM294 80q56 0 99 24t66 62v190q-23 38 -66 62t-99 24q-39 0 -71.5 -14t-56 -38t-36.5 -57t-13 -72t13 -72t36.5 -57t56 -38t71.5 -14zM335.979 544.967h-80.9951l105.993 164.99h53.9971z" />
    <glyph glyph-name="gdotaccent" unicode="&#x121;" horiz-adv-x="611" 
d="M292 -194q-56 0 -113 16.5t-99 46.5l38 59q32 -25 78.5 -41t97.5 -16q37 0 70.5 8t58 25t39 43.5t14.5 63.5q0 17 -3.5 37t-10.5 34q-32 -32 -75 -50t-95 -18q-55 0 -100.5 19t-78 52t-50.5 78t-18 98q0 52 18 97.5t50.5 78.5t78 52t100.5 19q51 0 93 -17t74 -49v58h70
v-393q20 -52 20 -103q0 -54 -22.5 -91.5t-58.5 -61.5t-82 -34.5t-94 -10.5zM294 80q56 0 99 24t66 62v190q-23 38 -66 62t-99 24q-39 0 -71.5 -14t-56 -38t-36.5 -57t-13 -72t13 -72t36.5 -57t56 -38t71.5 -14zM292 576q-23 0 -39.5 15.5t-16.5 40.5q0 23 16.5 39t39.5 16
t39.5 -16t16.5 -39q0 -24 -16.5 -40t-39.5 -16z" />
    <glyph glyph-name="hbar" unicode="&#x127;" horiz-adv-x="579" 
d="M79 710h70v-279q28 39 70.5 58t92.5 19q44 0 80 -14.5t61.5 -41t39.5 -64t14 -83.5v-305h-70v300q0 63 -36.5 102.5t-102.5 39.5q-57 0 -95.5 -30.5t-53.5 -82.5v-329h-70v710zM5 636h319v-54h-319v54z" />
    <glyph glyph-name="hcircumflex" unicode="&#x125;" horiz-adv-x="579" 
d="M79 710h70v-279q28 39 70.5 58t92.5 19q44 0 80 -14.5t61.5 -41t39.5 -64t14 -83.5v-305h-70v300q0 63 -36.5 102.5t-102.5 39.5q-57 0 -95.5 -30.5t-53.5 -82.5v-329h-70v710zM143 817l171 109l171 -109l-29 -49l-142 94l-142 -94z" />
    <glyph glyph-name="dotlessi" unicode="&#x131;" horiz-adv-x="228" 
d="M79 500h70v-500h-70v500z" />
    <glyph glyph-name="ibreve" unicode="&#x12d;" horiz-adv-x="228" 
d="M79 500h70v-500h-70v500zM114 577q-72 0 -110.5 38t-42.5 95h56q3 -37 27.5 -60.5t69.5 -23.5t69.5 23.5t28.5 60.5h55q-4 -57 -42.5 -95t-110.5 -38z" />
    <glyph glyph-name="imacron" unicode="&#x12b;" horiz-adv-x="228" 
d="M79 500h70v-500h-70v500zM-30 679h288v-54h-288v54z" />
    <glyph glyph-name="iogonek" unicode="&#x12f;" horiz-adv-x="228" 
d="M79 500h70v-500h-70v500zM79 619q-20 17 -20 43q0 23 16 39.5t39 16.5t39 -16.5t16 -39.5q0 -26 -20 -43h-70zM96 -192q-39 0 -69 21.5t-30 63.5q0 19 7.5 36t19.5 31t26.5 25t28.5 17l70 -2q-38 -17 -60.5 -41.5t-22.5 -50.5q0 -23 14.5 -34.5t38.5 -11.5q12 0 21 3
l15 5v-49q-12 -8 -27.5 -10.5t-31.5 -2.5z" />
    <glyph glyph-name="itilde" unicode="&#x129;" horiz-adv-x="228" 
d="M79 500h70v-500h-70v500zM-52 587q8 43 35.5 66.5t61.5 23.5q22 0 40 -8t34.5 -17t31 -17t28.5 -8q23 0 34.5 12.5t16.5 37.5h55l-3 -16q-8 -42 -34.5 -66t-62.5 -24q-21 0 -39.5 8t-35 17t-31.5 17t-30 8q-22 0 -33 -13t-16 -38h-55z" />
    <glyph glyph-name="uni1ECB" unicode="&#x1ecb;" horiz-adv-x="228" 
d="M79 500h70v-500h-70v500zM79 619q-20 17 -20 43q0 23 16 39.5t39 16.5t39 -16.5t16 -39.5q0 -26 -20 -43h-70zM114 -186q-23 0 -39.5 15.5t-16.5 40.5q0 23 16.5 39t39.5 16t39.5 -16t16.5 -39q0 -24 -16.5 -40t-39.5 -16z" />
    <glyph glyph-name="uni0237" unicode="&#x237;" horiz-adv-x="236" 
d="M-20 -120h25q48 0 65 23.5t17 69.5v527h70v-541q0 -72 -37 -107.5t-109 -35.5h-31v64z" />
    <glyph glyph-name="jcircumflex" unicode="&#x135;" horiz-adv-x="236" 
d="M-20 -120h25q48 0 65 23.5t17 69.5v527h70v-541q0 -72 -37 -107.5t-109 -35.5h-31v64zM280 602l-31 -45l-127 94l-127 -94l-31 45l158 116z" />
    <glyph glyph-name="uni0137" unicode="&#x137;" horiz-adv-x="502" 
d="M79 710h70v-441l239 231h93l-247 -237l274 -263h-96l-263 251v-251h-70v710zM239 -50h81l-106 -165h-54z" />
    <glyph glyph-name="lacute" unicode="&#x13a;" horiz-adv-x="228" 
d="M79 710h70v-710h-70v710zM257.984 920h-87.9951l-89.9941 -160h58.9961z" />
    <glyph glyph-name="lcaron" unicode="&#x13e;" horiz-adv-x="252" 
d="M79 710h70v-710h-70v710zM241 710h71l-47 -166h-50z" />
    <glyph glyph-name="uni013C" unicode="&#x13c;" horiz-adv-x="228" 
d="M79 710h70v-710h-70v710zM74 -50h81l-106 -165h-54z" />
    <glyph glyph-name="ldot" unicode="&#x140;" horiz-adv-x="345" 
d="M79 710h70v-710h-70v710zM284 308q-23 0 -39.5 15.5t-16.5 40.5q0 23 16.5 39t39.5 16t39.5 -16t16.5 -39q0 -24 -16.5 -40t-39.5 -16z" />
    <glyph glyph-name="lslash" unicode="&#x142;" horiz-adv-x="340" 
d="M142 710h70v-710h-70v710zM24 306l276 181l31 -47l-277 -181z" />
    <glyph glyph-name="eng" unicode="&#x14b;" horiz-adv-x="579" 
d="M330 -184v64h25q45 0 63.5 21t18.5 68v331q0 63 -36.5 102.5t-102.5 39.5q-57 0 -95.5 -30.5t-53.5 -82.5v-329h-70v500h70v-69q28 39 70.5 58t92.5 19q44 0 80 -14.5t61.5 -41t39.5 -64t14 -83.5v-348q0 -68 -36 -104.5t-104 -36.5h-37z" />
    <glyph glyph-name="nacute" unicode="&#x144;" horiz-adv-x="579" 
d="M79 500h70v-69q28 39 70.5 58t92.5 19q44 0 80 -14.5t61.5 -41t39.5 -64t14 -83.5v-305h-70v300q0 63 -36.5 102.5t-102.5 39.5q-57 0 -95.5 -30.5t-53.5 -82.5v-329h-70v500zM451.973 710h-87.9951l-89.9941 -160h58.9961z" />
    <glyph glyph-name="ncaron" unicode="&#x148;" horiz-adv-x="579" 
d="M79 500h70v-69q28 39 70.5 58t92.5 19q44 0 80 -14.5t61.5 -41t39.5 -64t14 -83.5v-305h-70v300q0 63 -36.5 102.5t-102.5 39.5q-57 0 -95.5 -30.5t-53.5 -82.5v-329h-70v500zM147.991 671.959l30.998 44.9971l126.992 -93.9941l126.992 93.9941l30.998 -44.9971
l-157.99 -115.993z" />
    <glyph glyph-name="uni0146" unicode="&#x146;" horiz-adv-x="579" 
d="M79 500h70v-69q28 39 70.5 58t92.5 19q44 0 80 -14.5t61.5 -41t39.5 -64t14 -83.5v-305h-70v300q0 63 -36.5 102.5t-102.5 39.5q-57 0 -95.5 -30.5t-53.5 -82.5v-329h-70v500zM255 -50h81l-106 -165h-54z" />
    <glyph glyph-name="oe" unicode="&#x153;" horiz-adv-x="1020" 
d="M948 72q-33 -34 -84.5 -57t-115.5 -23q-68 0 -126 31.5t-96 94.5q-37 -63 -95.5 -94.5t-127.5 -31.5q-57 0 -104.5 20t-82 55t-53.5 82t-19 101t19 101t53.5 82t82 55t104.5 20q69 0 127.5 -31.5t95.5 -94.5q36 63 93 94.5t122 31.5q50 0 94 -18t76.5 -52.5t52 -85
t19.5 -116.5h-422q3 -40 19 -73t41 -56t58 -36t69 -13q50 0 89.5 18.5t65.5 44.5zM737 443q-29 0 -56.5 -9t-51 -27.5t-40.5 -45.5t-24 -63h339q-9 72 -55 109t-112 36zM303 58q42 0 76.5 15t59 41t38.5 61t14 75t-14 75t-38.5 61t-59 41t-76.5 15q-41 0 -75.5 -15
t-59.5 -41t-38.5 -61t-13.5 -75t13.5 -75t38.5 -61t59.5 -41t75.5 -15z" />
    <glyph glyph-name="obreve" unicode="&#x14f;" horiz-adv-x="606" 
d="M303 -8q-57 0 -104.5 20t-82 55t-53.5 82t-19 101t19 101t53.5 82t82 55t104.5 20t104.5 -20t82 -55t53.5 -82t19 -101t-19 -101t-53.5 -82t-82 -55t-104.5 -20zM303 58q42 0 76 15t59 41t38.5 61t13.5 75t-13.5 75t-38.5 61t-59 41t-76 15q-41 0 -75.5 -15t-59.5 -41
t-38.5 -61t-13.5 -75t13.5 -75t38.5 -61t59.5 -41t75.5 -15zM303 577q-72 0 -110.5 38t-42.5 95h56q3 -37 27.5 -60.5t69.5 -23.5t69.5 23.5t28.5 60.5h55q-4 -57 -42.5 -95t-110.5 -38z" />
    <glyph glyph-name="ohungarumlaut" unicode="&#x151;" horiz-adv-x="606" 
d="M303 -8q-57 0 -104.5 20t-82 55t-53.5 82t-19 101t19 101t53.5 82t82 55t104.5 20t104.5 -20t82 -55t53.5 -82t19 -101t-19 -101t-53.5 -82t-82 -55t-104.5 -20zM303 58q42 0 76 15t59 41t38.5 61t13.5 75t-13.5 75t-38.5 61t-59 41t-76 15q-41 0 -75.5 -15t-59.5 -41
t-38.5 -61t-13.5 -75t13.5 -75t38.5 -61t59.5 -41t75.5 -15zM287 710h82l-120 -161h-53zM453 710h82l-119 -161h-53z" />
    <glyph glyph-name="omacron" unicode="&#x14d;" horiz-adv-x="606" 
d="M303 -8q-57 0 -104.5 20t-82 55t-53.5 82t-19 101t19 101t53.5 82t82 55t104.5 20t104.5 -20t82 -55t53.5 -82t19 -101t-19 -101t-53.5 -82t-82 -55t-104.5 -20zM303 58q42 0 76 15t59 41t38.5 61t13.5 75t-13.5 75t-38.5 61t-59 41t-76 15q-41 0 -75.5 -15t-59.5 -41
t-38.5 -61t-13.5 -75t13.5 -75t38.5 -61t59.5 -41t75.5 -15zM159 679h288v-54h-288v54z" />
    <glyph glyph-name="uni1ECD" unicode="&#x1ecd;" horiz-adv-x="606" 
d="M303 -8q-57 0 -104.5 20t-82 55t-53.5 82t-19 101t19 101t53.5 82t82 55t104.5 20t104.5 -20t82 -55t53.5 -82t19 -101t-19 -101t-53.5 -82t-82 -55t-104.5 -20zM303 58q42 0 76 15t59 41t38.5 61t13.5 75t-13.5 75t-38.5 61t-59 41t-76 15q-41 0 -75.5 -15t-59.5 -41
t-38.5 -61t-13.5 -75t13.5 -75t38.5 -61t59.5 -41t75.5 -15zM303 -186q-23 0 -39.5 15.5t-16.5 40.5q0 23 16.5 39t39.5 16t39.5 -16t16.5 -39q0 -24 -16.5 -40t-39.5 -16z" />
    <glyph glyph-name="racute" unicode="&#x155;" horiz-adv-x="345" 
d="M79 500h70v-68q24 35 61 54.5t85 19.5q17 0 34 -3v-73q-10 3 -21 4t-23 1q-48 0 -84 -24t-52 -68v-343h-70v500zM352.979 710h-87.9951l-89.9941 -160h58.9961z" />
    <glyph glyph-name="rcaron" unicode="&#x159;" horiz-adv-x="345" 
d="M79 500h70v-68q24 35 61 54.5t85 19.5q17 0 34 -3v-73q-10 3 -21 4t-23 1q-48 0 -84 -24t-52 -68v-343h-70v500zM49.9971 671.959l30.998 44.9971l126.992 -93.9941l126.992 93.9941l30.998 -44.9971l-157.99 -115.993z" />
    <glyph glyph-name="uni0157" unicode="&#x157;" horiz-adv-x="345" 
d="M79 500h70v-68q24 35 61 54.5t85 19.5q17 0 34 -3v-73q-10 3 -21 4t-23 1q-48 0 -84 -24t-52 -68v-343h-70v500zM73 -50h81l-106 -165h-54z" />
    <glyph glyph-name="sacute" unicode="&#x15b;" horiz-adv-x="415" 
d="M206 -8q-60 0 -104 27.5t-70 75.5l56 37q20 -37 48 -57t72 -20q43 0 71.5 20t28.5 54q0 35 -23 54.5t-70 36.5l-42 16q-65 24 -90.5 61t-25.5 82q0 28 11 51.5t31 40.5t48 27t61 10q48 0 85.5 -21.5t59.5 -63.5l-56 -32q-12 25 -33.5 39.5t-55.5 14.5q-35 0 -58.5 -17.5
t-23.5 -47.5q0 -28 17.5 -48t63.5 -37l44 -16q63 -23 95 -58t32 -90q0 -29 -12 -54.5t-34 -44t-54 -29.5t-72 -11zM355.979 710h-87.9951l-89.9941 -160h58.9961z" />
    <glyph glyph-name="scaron" unicode="&#x161;" horiz-adv-x="415" 
d="M206 -8q-60 0 -104 27.5t-70 75.5l56 37q20 -37 48 -57t72 -20q43 0 71.5 20t28.5 54q0 35 -23 54.5t-70 36.5l-42 16q-65 24 -90.5 61t-25.5 82q0 28 11 51.5t31 40.5t48 27t61 10q48 0 85.5 -21.5t59.5 -63.5l-56 -32q-12 25 -33.5 39.5t-55.5 14.5q-35 0 -58.5 -17.5
t-23.5 -47.5q0 -28 17.5 -48t63.5 -37l44 -16q63 -23 95 -58t32 -90q0 -29 -12 -54.5t-34 -44t-54 -29.5t-72 -11zM52.9971 671.959l30.998 44.9971l126.992 -93.9941l126.992 93.9941l30.998 -44.9971l-157.99 -115.993z" />
    <glyph glyph-name="scedilla" unicode="&#x15f;" horiz-adv-x="415" 
d="M206 -8q-60 0 -104 27.5t-70 75.5l56 37q20 -37 48 -57t72 -20q43 0 71.5 20t28.5 54q0 35 -23 54.5t-70 36.5l-42 16q-65 24 -90.5 61t-25.5 82q0 28 11 51.5t31 40.5t48 27t61 10q48 0 85.5 -21.5t59.5 -63.5l-56 -32q-12 25 -33.5 39.5t-55.5 14.5q-35 0 -58.5 -17.5
t-23.5 -47.5q0 -28 17.5 -48t63.5 -37l44 -16q63 -23 95 -58t32 -90q0 -29 -12 -54.5t-34 -44t-54 -29.5t-72 -11zM197 0h50l-67 -165h-80z" />
    <glyph glyph-name="scircumflex" unicode="&#x15d;" horiz-adv-x="415" 
d="M206 -8q-60 0 -104 27.5t-70 75.5l56 37q20 -37 48 -57t72 -20q43 0 71.5 20t28.5 54q0 35 -23 54.5t-70 36.5l-42 16q-65 24 -90.5 61t-25.5 82q0 28 11 51.5t31 40.5t48 27t61 10q48 0 85.5 -21.5t59.5 -63.5l-56 -32q-12 25 -33.5 39.5t-55.5 14.5q-35 0 -58.5 -17.5
t-23.5 -47.5q0 -28 17.5 -48t63.5 -37l44 -16q63 -23 95 -58t32 -90q0 -29 -12 -54.5t-34 -44t-54 -29.5t-72 -11zM370 602l-31 -45l-127 94l-127 -94l-31 45l158 116z" />
    <glyph glyph-name="uni0219" unicode="&#x219;" horiz-adv-x="415" 
d="M206 -8q-60 0 -104 27.5t-70 75.5l56 37q20 -37 48 -57t72 -20q43 0 71.5 20t28.5 54q0 35 -23 54.5t-70 36.5l-42 16q-65 24 -90.5 61t-25.5 82q0 28 11 51.5t31 40.5t48 27t61 10q48 0 85.5 -21.5t59.5 -63.5l-56 -32q-12 25 -33.5 39.5t-55.5 14.5q-35 0 -58.5 -17.5
t-23.5 -47.5q0 -28 17.5 -48t63.5 -37l44 -16q63 -23 95 -58t32 -90q0 -29 -12 -54.5t-34 -44t-54 -29.5t-72 -11zM170 -50h81l-106 -165h-54z" />
    <glyph glyph-name="tbar" unicode="&#x167;" horiz-adv-x="365" 
d="M266 0q-72 0 -109 35.5t-37 107.5v293h-87l-16 64h103v115l70 35v-150h150l-16 -64h-134v-279q0 -47 17.5 -70t66.5 -23h57v-64h-65zM25 338h308v-54h-308v54z" />
    <glyph glyph-name="tcaron" unicode="&#x165;" horiz-adv-x="350" 
d="M257 0q-72 0 -109 35.5t-37 107.5v293h-87l-16 64h103v115l70 35v-150h150l-16 -64h-134v-279q0 -47 17.5 -70t66.5 -23h57v-64h-65zM278 710h71l-47 -166h-50z" />
    <glyph glyph-name="uni0163" unicode="&#x163;" horiz-adv-x="350" 
d="M257 0q-72 0 -109 35.5t-37 107.5v293h-87l-16 64h103v115l70 35v-150h150l-16 -64h-134v-279q0 -47 17.5 -70t66.5 -23h57v-64h-65zM174 -50h81l-106 -165h-54z" />
    <glyph glyph-name="uni021B" unicode="&#x21b;" horiz-adv-x="350" 
d="M257 0q-72 0 -109 35.5t-37 107.5v293h-87l-16 64h103v115l70 35v-150h150l-16 -64h-134v-279q0 -47 17.5 -70t66.5 -23h57v-64h-65zM174 -50h81l-106 -165h-54z" />
    <glyph glyph-name="ubreve" unicode="&#x16d;" horiz-adv-x="578" 
d="M429 68q-29 -39 -71 -57.5t-91 -18.5q-45 0 -81 14.5t-61.5 41t-39 64t-13.5 83.5v305h70v-300q0 -63 36.5 -102.5t101.5 -39.5q57 0 94.5 29.5t54.5 80.5v332h70v-500h-70v68zM285 577q-72 0 -110.5 38t-42.5 95h56q3 -37 27.5 -60.5t69.5 -23.5t69.5 23.5t28.5 60.5h55
q-4 -57 -42.5 -95t-110.5 -38z" />
    <glyph glyph-name="uhungarumlaut" unicode="&#x171;" horiz-adv-x="578" 
d="M429 68q-29 -39 -71 -57.5t-91 -18.5q-45 0 -81 14.5t-61.5 41t-39 64t-13.5 83.5v305h70v-300q0 -63 36.5 -102.5t101.5 -39.5q57 0 94.5 29.5t54.5 80.5v332h70v-500h-70v68zM269 710h82l-120 -161h-53zM435 710h82l-119 -161h-53z" />
    <glyph glyph-name="umacron" unicode="&#x16b;" horiz-adv-x="578" 
d="M429 68q-29 -39 -71 -57.5t-91 -18.5q-45 0 -81 14.5t-61.5 41t-39 64t-13.5 83.5v305h70v-300q0 -63 36.5 -102.5t101.5 -39.5q57 0 94.5 29.5t54.5 80.5v332h70v-500h-70v68zM141 679h288v-54h-288v54z" />
    <glyph glyph-name="uogonek" unicode="&#x173;" horiz-adv-x="578" 
d="M429 68q-29 -39 -71 -57.5t-91 -18.5q-45 0 -81 14.5t-61.5 41t-39 64t-13.5 83.5v305h70v-300q0 -63 36.5 -102.5t101.5 -39.5q57 0 94.5 29.5t54.5 80.5v332h70v-500h-70v68zM446 -192q-39 0 -69 21.5t-30 63.5q0 19 7.5 36t19.5 31t26.5 25t28.5 17l70 -2
q-38 -17 -60.5 -41.5t-22.5 -50.5q0 -23 14.5 -34.5t38.5 -11.5q12 0 21 3l15 5v-49q-12 -8 -27.5 -10.5t-31.5 -2.5z" />
    <glyph glyph-name="uring" unicode="&#x16f;" horiz-adv-x="578" 
d="M429 68q-29 -39 -71 -57.5t-91 -18.5q-45 0 -81 14.5t-61.5 41t-39 64t-13.5 83.5v305h70v-300q0 -63 36.5 -102.5t101.5 -39.5q57 0 94.5 29.5t54.5 80.5v332h70v-500h-70v68zM285 572q-20 0 -37 7t-29.5 19.5t-20 29t-7.5 35.5q0 39 27.5 65t66.5 26t66.5 -26t27.5 -65
q0 -19 -7.5 -35.5t-20 -29t-30 -19.5t-36.5 -7zM285 612q21 0 36 14t15 37t-15 37t-36 14t-36 -14t-15 -37t15 -37t36 -14z" />
    <glyph glyph-name="utilde" unicode="&#x169;" horiz-adv-x="578" 
d="M429 68q-29 -39 -71 -57.5t-91 -18.5q-45 0 -81 14.5t-61.5 41t-39 64t-13.5 83.5v305h70v-300q0 -63 36.5 -102.5t101.5 -39.5q57 0 94.5 29.5t54.5 80.5v332h70v-500h-70v68zM119 587q8 43 35.5 66.5t61.5 23.5q22 0 40 -8t34.5 -17t31 -17t28.5 -8q23 0 34.5 12.5
t16.5 37.5h55l-3 -16q-8 -42 -34.5 -66t-62.5 -24q-21 0 -39.5 8t-35 17t-31.5 17t-30 8q-22 0 -33 -13t-16 -38h-55z" />
    <glyph glyph-name="uni1EE5" unicode="&#x1ee5;" horiz-adv-x="578" 
d="M429 68q-29 -39 -71 -57.5t-91 -18.5q-45 0 -81 14.5t-61.5 41t-39 64t-13.5 83.5v305h70v-300q0 -63 36.5 -102.5t101.5 -39.5q57 0 94.5 29.5t54.5 80.5v332h70v-500h-70v68zM279 -186q-23 0 -39.5 15.5t-16.5 40.5q0 23 16.5 39t39.5 16t39.5 -16t16.5 -39
q0 -24 -16.5 -40t-39.5 -16z" />
    <glyph glyph-name="wacute" unicode="&#x1e83;" horiz-adv-x="709" 
d="M12 500h73l124 -386l146 394l146 -394l123 386h73l-163 -501h-53l-126 341l-125 -341h-54zM498.97 710h-87.9951l-89.9941 -160h58.9961z" />
    <glyph glyph-name="wcircumflex" unicode="&#x175;" horiz-adv-x="709" 
d="M12 500h73l124 -386l146 394l146 -394l123 386h73l-163 -501h-53l-126 341l-125 -341h-54zM513 602l-31 -45l-127 94l-127 -94l-31 45l158 116z" />
    <glyph glyph-name="wdieresis" unicode="&#x1e85;" horiz-adv-x="709" 
d="M12 500h73l124 -386l146 394l146 -394l123 386h73l-163 -501h-53l-126 341l-125 -341h-54zM467 576q-23 0 -39.5 16t-16.5 40q0 23 16.5 39t39.5 16t39 -16t16 -39q0 -25 -16 -40.5t-39 -15.5zM245 576q-23 0 -39.5 16t-16.5 40q0 23 16 39t40 16q23 0 39 -16t16 -39
q0 -25 -16.5 -40.5t-38.5 -15.5z" />
    <glyph glyph-name="wgrave" unicode="&#x1e81;" horiz-adv-x="709" 
d="M12 500h73l124 -386l146 394l146 -394l123 386h73l-163 -501h-53l-126 341l-125 -341h-54zM216 710h88l90 -160h-59z" />
    <glyph glyph-name="ycircumflex" unicode="&#x177;" horiz-adv-x="507" 
d="M218 34l-212 466h76l172 -389l174 389h76l-313 -684h-75zM414 602l-31 -45l-127 94l-127 -94l-31 45l158 116z" />
    <glyph glyph-name="ygrave" unicode="&#x1ef3;" horiz-adv-x="507" 
d="M218 34l-212 466h76l172 -389l174 389h76l-313 -684h-75zM118 710h88l90 -160h-59z" />
    <glyph glyph-name="uni0233" unicode="&#x233;" horiz-adv-x="507" 
d="M218 34l-212 466h76l172 -389l174 389h76l-313 -684h-75zM112 679h288v-54h-288v54z" />
    <glyph glyph-name="zacute" unicode="&#x17a;" horiz-adv-x="484" 
d="M331 436h-282v64h407l-314 -436h304v-64h-430zM396.976 710h-87.9941l-89.9951 -160h58.9971z" />
    <glyph glyph-name="zcaron" unicode="&#x17e;" horiz-adv-x="484" 
d="M331 436h-282v64h407l-314 -436h304v-64h-430zM93.9941 671.959l30.998 44.9971l126.992 -93.9941l126.992 93.9941l30.998 -44.9971l-157.99 -115.993z" />
    <glyph glyph-name="zdotaccent" unicode="&#x17c;" horiz-adv-x="484" 
d="M331 436h-282v64h407l-314 -436h304v-64h-430zM253 576q-23 0 -39.5 15.5t-16.5 40.5q0 23 16.5 39t39.5 16t39.5 -16t16.5 -39q0 -24 -16.5 -40t-39.5 -16z" />
    <glyph glyph-name="uni0259" unicode="&#x259;" horiz-adv-x="573" 
d="M271.983 508.969q55.9971 0 102.994 -19.999q46.9971 -19.998 81.4941 -54.9961q34.498 -34.998 53.4971 -81.9951t18.999 -100.994q0 -53.9961 -18.999 -100.993t-52.9971 -81.9951q-33.9971 -34.998 -79.4951 -54.9971q-45.4971 -19.999 -98.4932 -19.999
q-54.9971 0 -99.9941 19.999t-76.4951 55.9971q-31.498 35.9971 -48.4971 85.9941t-16.999 109.993h420.974q-2.99902 39.998 -18.498 72.4961t-40.498 55.9961q-24.998 23.499 -57.4961 36.498t-69.4961 12.999q-49.9971 0 -89.4941 -18.499
q-39.498 -18.498 -65.4961 -44.4971l-44.9971 48.9971q32.9971 33.998 84.4941 56.9971q51.4971 22.998 115.493 22.998zM282.982 57.9961q27.999 0 55.4971 9q27.498 8.99902 50.4971 27.498q22.998 18.499 39.9971 45.4971q16.999 26.999 23.999 62.9961h-336.979
q8.99902 -71.9951 54.9961 -108.993t111.993 -35.998z" />
    <glyph glyph-name="uni0410" unicode="&#x410;" horiz-adv-x="675" 
d="M338 718l342 -718h-79l-94 201h-338l-94 -201h-80zM475 269l-137 290l-137 -290h274z" />
    <glyph glyph-name="uni0411" unicode="&#x411;" horiz-adv-x="617" 
d="M172 404h177q52 0 95.5 -14.5t74 -41t47.5 -64t17 -84.5q0 -49 -18.5 -86t-51.5 -62.5t-79 -38.5t-101 -13h-234v710h417v-72h-344v-234zM346 69q78 0 120.5 35.5t42.5 97.5q0 61 -42.5 97.5t-120.5 36.5h-174v-267h174z" />
    <glyph glyph-name="uni0412" unicode="&#x412;" horiz-adv-x="630" 
d="M99 710h232q51 0 89.5 -14.5t64.5 -39.5t39 -58.5t13 -70.5q0 -56 -22 -92.5t-62 -59.5q28 -9 52 -23.5t41.5 -36.5t27.5 -51.5t10 -66.5q0 -48 -17.5 -85t-49 -61.5t-75.5 -37.5t-98 -13h-245v710zM331 397q63 0 97 35t34 88q0 25 -9 47t-25.5 38.5t-41 26.5t-55.5 10
h-158v-245h158zM353 68q78 0 117 36t39 96q0 57 -38 95t-118 38h-180v-265h180z" />
    <glyph glyph-name="uni0413" unicode="&#x413;" horiz-adv-x="502" 
d="M486 638h-314v-638h-73v710h387v-72z" />
    <glyph glyph-name="uni0414" unicode="&#x414;" horiz-adv-x="757" 
d="M16 72h66l297 646l296 -646h66v-220h-72v148h-581v-148h-72v220zM599 72l-220 488l-221 -488h441z" />
    <glyph glyph-name="uni0415" unicode="&#x415;" horiz-adv-x="554" 
d="M99 710h405v-72h-332v-238h272v-72h-272v-256h332v-72h-405v710z" />
    <glyph glyph-name="uni0416" unicode="&#x416;" horiz-adv-x="940" 
d="M345 349l-322 361h92l318 -358v358h74v-358l319 358h92l-323 -361l352 -349h-99l-341 339v-339h-74v339l-340 -339h-100z" />
    <glyph glyph-name="uni0417" unicode="&#x417;" horiz-adv-x="552" 
d="M55 631q90 87 206 87q47 0 86 -14t66.5 -39t42.5 -60t15 -77q0 -52 -25 -93t-75 -64q56 -17 91.5 -61t35.5 -112q0 -51 -20 -89.5t-53 -64.5t-76.5 -39t-90.5 -13q-75 0 -137.5 30t-100.5 81l56 49q32 -44 82 -67t103 -23q37 0 67 10.5t51.5 29t33 44t11.5 55.5
q0 58 -40.5 96t-119.5 38h-75v64h78q63 0 96.5 36.5t33.5 87.5q0 56 -36 90.5t-103 34.5q-85 0 -152 -67z" />
    <glyph glyph-name="uni0418" unicode="&#x418;" horiz-adv-x="787" 
d="M99 710h73v-543l516 551v-718h-74v543l-515 -551v718z" />
    <glyph glyph-name="uni041A" unicode="&#x41a;" horiz-adv-x="625" 
d="M99 710h73v-359l339 359h92l-341 -361l371 -349h-100l-361 339v-339h-73v710z" />
    <glyph glyph-name="uni041B" unicode="&#x41b;" horiz-adv-x="676" 
d="M338 718l343 -718h-80l-263 560l-263 -560h-80z" />
    <glyph glyph-name="uni041C" unicode="&#x41c;" horiz-adv-x="881" 
d="M99 718l342 -388l341 388v-718h-74v534l-267 -309l-268 309v-534h-74v718z" />
    <glyph glyph-name="uni041D" unicode="&#x41d;" horiz-adv-x="763" 
d="M99 710h73v-310h419v310h73v-710h-73v328h-419v-328h-73v710z" />
    <glyph glyph-name="uni041E" unicode="&#x41e;" horiz-adv-x="822" 
d="M411 -8q-77 0 -143 27.5t-115 76.5t-77 115.5t-28 143.5t28 143.5t77 115t115 76.5t143 28q76 0 142.5 -28t115.5 -76.5t77 -115t28 -143.5t-28 -143.5t-77 -115.5t-115.5 -76.5t-142.5 -27.5zM411 63q61 0 113.5 22.5t91 61.5t60.5 92.5t22 115.5t-22 115.5t-60.5 92.5
t-91 61.5t-113.5 22.5t-113.5 -22.5t-91.5 -61.5t-61 -92.5t-22 -115.5t22 -115.5t61 -92.5t91.5 -61.5t113.5 -22.5z" />
    <glyph glyph-name="uni041F" unicode="&#x41f;" horiz-adv-x="732" 
d="M559 638h-387v-638h-73v710h534v-710h-74v638z" />
    <glyph glyph-name="uni0420" unicode="&#x420;" horiz-adv-x="571" 
d="M99 710h200q56 0 100.5 -15t75 -42.5t47 -66.5t16.5 -86t-16.5 -86t-47 -66.5t-75 -43t-100.5 -15.5h-126v-289h-74v710zM298 358q81 0 122.5 38t41.5 104q0 65 -41.5 103.5t-122.5 38.5h-125v-284h125z" />
    <glyph glyph-name="uni0421" unicode="&#x421;" horiz-adv-x="721" 
d="M410 -8q-76 0 -142 27.5t-115 76.5t-77 115.5t-28 143.5t28 143.5t77 115t115 76.5t142 28q46 0 87.5 -10t77.5 -28t65.5 -42t49.5 -51l-53 -46q-37 48 -95.5 77.5t-131.5 29.5q-61 0 -113.5 -22.5t-90.5 -62t-60 -93t-22 -115.5t22 -115.5t60 -92.5t90.5 -61.5
t113.5 -22.5q73 0 131.5 29.5t95.5 77.5l53 -47q-20 -27 -49.5 -51t-65.5 -42t-77.5 -28t-87.5 -10z" />
    <glyph glyph-name="uni0422" unicode="&#x422;" horiz-adv-x="517" 
d="M221 638h-206v72h487v-72h-207v-638h-74v638z" />
    <glyph glyph-name="uni0423" unicode="&#x423;" horiz-adv-x="649" 
d="M293 168l-278 542h82l237 -464l246 464h77l-376 -710h-77z" />
    <glyph glyph-name="uni0424" unicode="&#x424;" horiz-adv-x="849" 
d="M388 -20v87h-5q-79 2 -142 23.5t-106.5 59t-67 90.5t-23.5 119q0 65 23 118t67 90.5t106.5 58.5t142.5 23h5v81h73v-81h5q79 -2 142 -23.5t106.5 -59t67 -90.5t23.5 -119q0 -65 -23 -118t-66.5 -90.5t-106.5 -58.5t-143 -23h-5v-87h-73zM467 135q131 3 197 61t66 161
q0 106 -66 163.5t-197 60.5h-6v-446h6zM388 581h-6q-129 -3 -196 -60.5t-67 -161.5q0 -106 66 -163.5t197 -60.5h6v446z" />
    <glyph glyph-name="uni0425" unicode="&#x425;" horiz-adv-x="631" 
d="M269 364l-247 346h85l208 -290l208 290h85l-245 -346l261 -364h-84l-224 309l-223 -309h-87z" />
    <glyph glyph-name="uni0426" unicode="&#x426;" horiz-adv-x="747" 
d="M710 72v-220h-72v148h-539v710h73v-638h378v638h73v-638h87z" />
    <glyph glyph-name="uni0427" unicode="&#x427;" horiz-adv-x="682" 
d="M509 0v313q-48 -17 -103.5 -27.5t-118.5 -10.5q-111 0 -175.5 54t-64.5 158v223h74v-208q0 -44 13.5 -74t37 -48t55.5 -26t70 -8q56 0 108.5 9t103.5 29v326h74v-710h-74z" />
    <glyph glyph-name="uni0428" unicode="&#x428;" horiz-adv-x="973" 
d="M99 710h73v-638h278v638h74v-638h276v638h74v-710h-775v710z" />
    <glyph glyph-name="uni0429" unicode="&#x429;" horiz-adv-x="998" 
d="M450 710h74v-638h276v638h74v-638h87v-220h-73v148h-789v710h73v-638h278v638z" />
    <glyph glyph-name="uni042A" unicode="&#x42a;" horiz-adv-x="688" 
d="M210 638h-194v72h268v-294h129q56 0 101 -15t76 -42.5t47.5 -66t16.5 -84.5q0 -47 -16.5 -85.5t-48 -65.5t-76 -42t-101.5 -15h-202v638zM412 68q82 0 125 37t43 103t-43 102.5t-125 36.5h-128v-279h128z" />
    <glyph glyph-name="uni042B" unicode="&#x42b;" horiz-adv-x="832" 
d="M306 416q57 0 101.5 -15t76 -42.5t48 -66t16.5 -84.5q0 -47 -16.5 -85.5t-48 -65.5t-76 -42t-101.5 -15h-207v710h73v-294h134zM306 68q82 0 125 37t43 103t-43 102.5t-125 36.5h-134v-279h134zM659 710h74v-710h-74v710z" />
    <glyph glyph-name="uni042C" unicode="&#x42c;" horiz-adv-x="582" 
d="M306 416q57 0 101.5 -15t76 -42.5t48 -66t16.5 -84.5q0 -47 -16.5 -85.5t-48 -65.5t-76 -42t-101.5 -15h-207v710h73v-294h134zM306 68q82 0 125 37t43 103t-43 102.5t-125 36.5h-134v-279h134z" />
    <glyph glyph-name="uni042D" unicode="&#x42d;" horiz-adv-x="726" 
d="M315 -8q-45 0 -87 10t-78 28t-65 42t-50 51l53 47q37 -49 96 -78t131 -29q57 0 107 19.5t88 54.5t61.5 83t29.5 104h-360v72h358q-7 54 -31 100t-61.5 79.5t-86.5 52.5t-105 19q-72 0 -131 -29t-96 -77l-53 46q21 27 50 51t65 42t78 28t87 10q76 0 142.5 -28t115.5 -76.5
t77 -115t28 -143.5t-28 -143.5t-77 -115.5t-115.5 -76.5t-142.5 -27.5z" />
    <glyph glyph-name="uni042E" unicode="&#x42e;" horiz-adv-x="1056" 
d="M99 710h73v-310h133q7 69 37 127t76.5 100.5t107 66.5t129.5 24q74 0 138.5 -28t112 -76.5t75 -115t27.5 -143.5t-27.5 -143.5t-75 -115.5t-112 -76.5t-138.5 -27.5q-71 0 -133 25.5t-109 70.5t-76 106.5t-34 133.5h-131v-328h-73v710zM655 63q59 0 110 22.5t88 61.5
t58 92.5t21 115.5t-21 115.5t-58 92.5t-88 61.5t-110 22.5t-110 -22.5t-88.5 -61.5t-58.5 -92.5t-21 -115.5t21 -115.5t58.5 -92.5t88.5 -61.5t110 -22.5z" />
    <glyph glyph-name="uni042F" unicode="&#x42f;" horiz-adv-x="617" 
d="M234 306q-81 16 -121 68t-40 126q0 47 16.5 86t47 66.5t75 42.5t100.5 15h206v-710h-73v289h-136l-195 -289h-87zM445 358v284h-132q-81 0 -123 -38.5t-42 -103.5q0 -66 42 -104t123 -38h132z" />
    <glyph glyph-name="uni0405" unicode="&#x405;" horiz-adv-x="524" 
d="M260 -8q-37 0 -70.5 8.5t-62.5 23.5t-52 34.5t-39 41.5l57 49q26 -35 69.5 -60.5t97.5 -25.5q69 0 109 30t40 84q0 52 -34 84.5t-93 58.5l-68 29q-81 35 -116.5 83t-35.5 113q0 39 17 71t45 54.5t65 35t76 12.5q59 0 108 -23t84 -65l-53 -52q-27 34 -61 51.5t-81 17.5
q-25 0 -48 -7t-40 -20t-27.5 -32.5t-10.5 -43.5q0 -43 25.5 -74t86.5 -58l68 -29q36 -16 66.5 -35t53 -43t35 -54t12.5 -67q0 -42 -15 -77.5t-44 -61t-70.5 -39.5t-93.5 -14z" />
    <glyph glyph-name="uni0404" unicode="&#x404;" horiz-adv-x="725" 
d="M410 -8q-76 0 -142 27.5t-115 76.5t-77 115.5t-28 143.5t28 143.5t77 115t115 76.5t142 28q46 0 87.5 -10t77.5 -28t65.5 -42t49.5 -51l-53 -46q-37 48 -95.5 77.5t-131.5 29.5q-56 0 -104.5 -19t-86 -52.5t-62 -80t-31.5 -100.5h370v-72h-371q6 -57 29.5 -104.5
t61 -82.5t87.5 -54.5t107 -19.5q73 0 131.5 29.5t95.5 77.5l53 -47q-20 -27 -49.5 -51t-65.5 -42t-77.5 -28t-87.5 -10z" />
    <glyph glyph-name="uni0406" unicode="&#x406;" horiz-adv-x="272" 
d="M99 710h74v-710h-74v710z" />
    <glyph glyph-name="uni0408" unicode="&#x408;" horiz-adv-x="523" 
d="M226 -8q-42 0 -79.5 13t-65 39t-43.5 63.5t-16 87.5h74q0 -66 36.5 -99t93.5 -33q58 0 94.5 33t36.5 99v515h74v-519q0 -50 -16.5 -87.5t-44.5 -62t-65 -37t-79 -12.5z" />
    <glyph glyph-name="uni040F" unicode="&#x40f;" horiz-adv-x="734" 
d="M403 -148h-73v148h-231v710h73v-638h389v638h74v-710h-232v-148z" />
    <glyph glyph-name="uni0409" unicode="&#x409;" horiz-adv-x="950" 
d="M338 718l144 -302h194q57 0 101.5 -15t75.5 -42.5t47.5 -66t16.5 -84.5q0 -47 -16.5 -85.5t-47.5 -65.5t-75.5 -42t-101.5 -15h-75l-263 561l-263 -561h-80zM515 347l133 -279h28q81 0 124 37t43 103t-43 102.5t-124 36.5h-161z" />
    <glyph glyph-name="uni040A" unicode="&#x40a;" horiz-adv-x="1009" 
d="M99 710h73v-310h368v310h74v-310h119q57 0 102.5 -15t76.5 -41t47.5 -61.5t16.5 -76.5q0 -46 -16.5 -84t-48 -65t-76.5 -42t-102 -15h-193v328h-368v-328h-73v710zM614 328v-260h120q83 0 125 36t42 101q0 56 -42 89.5t-125 33.5h-120z" />
    <glyph glyph-name="uni0402" unicode="&#x402;" horiz-adv-x="718" 
d="M188 638h-172v72h472v-72h-226v-238q27 10 51 18t48 13t49 7.5t54 2.5q100 0 157.5 -61t57.5 -178q0 -72 -22 -128.5t-59 -95.5t-86 -59t-103 -20h-14v67h12q27 0 61.5 10.5t65 37t51 70.5t20.5 110q0 87 -40 131t-113 44q-29 0 -52 -2.5t-45 -7t-44.5 -12.5t-48.5 -18
v-329h-74v638z" />
    <glyph glyph-name="uni040B" unicode="&#x40b;" horiz-adv-x="743" 
d="M16 638v72h472v-72h-226v-238q54 21 104.5 30.5t109.5 9.5q50 0 91 -15.5t69.5 -43.5t44 -67t15.5 -85v-229h-74v220q-1 66 -39.5 107.5t-111.5 41.5q-58 0 -107 -9.5t-102 -30.5v-329h-74v638h-172z" />
    <glyph glyph-name="uni0474" unicode="&#x474;" horiz-adv-x="659" 
d="M327 -8l-324 718h81l242 -547l184 446q22 53 52 77t72 24h8v-75q-25 0 -39.5 -14t-28.5 -47z" />
    <glyph glyph-name="uni04AE" unicode="&#x4ae;" horiz-adv-x="616" 
d="M271 301l-260 409h86l211 -337l211 337h86l-260 -409v-301h-74v301z" />
    <glyph glyph-name="uni04BA" unicode="&#x4ba;" horiz-adv-x="682" 
d="M172.989 709.957v-312.981q47.9971 16.999 103.494 27.498q55.4961 10.5 118.492 10.5q110.993 0 175.489 -53.9971q64.4961 -53.9961 64.4961 -157.99v-222.986h-73.9951v207.987q0 43.9971 -13.499 73.9951t-36.998 47.9971q-23.498 17.999 -55.4961 25.999
q-31.998 7.99902 -69.9961 7.99902q-55.9971 0 -108.493 -8.99902q-52.4971 -9 -103.494 -28.998v-325.98h-73.9951v709.957h73.9951z" />
    <glyph glyph-name="uni04C0" unicode="&#x4c0;" horiz-adv-x="272" 
d="M99 710h74v-710h-74v710z" />
    <glyph glyph-name="uni04D8" unicode="&#x4d8;" horiz-adv-x="779" 
d="M382 -7q-81 0 -146 29t-110 81.5t-69.5 125t-25.5 159.5h620q-6 60 -30.5 108t-62 82t-84 52t-95.5 18q-65 0 -112.5 -18.5t-84.5 -48.5l-44 55q47 41 106 62t133 21q72 0 136.5 -28t112.5 -76.5t76 -115t28 -143.5t-26 -143.5t-72 -115.5t-110 -76.5t-140 -27.5zM382 64
q54 0 101 18t82.5 51.5t58 81.5t27.5 108h-542q5 -56 26 -103t55.5 -82t83 -54.5t108.5 -19.5z" />
    <glyph glyph-name="uni0462" unicode="&#x462;" horiz-adv-x="695" 
d="M412 428q57 0 103 -15t78.5 -43t49.5 -67.5t17 -88.5t-17 -88.5t-49.5 -67.5t-78.5 -43t-103 -15h-201v543h-184v54h184v133h74v-133h228v-54h-228v-115h127zM411 68q85 0 130 38.5t45 107.5t-45 107.5t-130 38.5h-126v-292h126z" />
    <glyph glyph-name="uni0419" unicode="&#x419;" horiz-adv-x="787" 
d="M99 710h73v-543l516 551v-718h-74v543l-515 -551v718zM563 911q-2 -71 -45.5 -109.5t-112.5 -38.5t-113 38.5t-46 109.5h60q2 -50 29.5 -74t69.5 -24t69.5 24t29.5 74h59z" />
    <glyph glyph-name="uni0401" unicode="&#x401;" horiz-adv-x="554" 
d="M99 710h405v-72h-332v-238h272v-72h-272v-256h332v-72h-405v710zM413 788q-23 0 -39.5 16t-16.5 40q0 23 16.5 39t39.5 16t39 -16t16 -39q0 -25 -16 -40.5t-39 -15.5zM191 788q-23 0 -39.5 16t-16.5 40q0 23 16 39t40 16q23 0 39 -16t16 -39q0 -25 -16.5 -40.5
t-38.5 -15.5z" />
    <glyph glyph-name="uni040C" unicode="&#x40c;" horiz-adv-x="625" 
d="M99 710h73v-359l339 359h92l-341 -361l371 -349h-100l-361 339v-339h-73v710zM481.971 913h-87.9951l-83.9941 -145h59.9961z" />
    <glyph glyph-name="uni0490" unicode="&#x490;" horiz-adv-x="503" 
d="M413 710v148h73v-220h-314v-638h-73v710h314z" />
    <glyph glyph-name="uni0403" unicode="&#x403;" horiz-adv-x="502" 
d="M486 638h-314v-638h-73v710h387v-72zM434.974 913h-87.9951l-83.9941 -145h59.9961z" />
    <glyph glyph-name="uni040E" unicode="&#x40e;" horiz-adv-x="649" 
d="M293 168l-278 542h82l237 -464l246 464h77l-376 -710h-77zM496 911q-2 -71 -45.5 -109.5t-112.5 -38.5t-113 38.5t-46 109.5h60q2 -50 29.5 -74t69.5 -24t69.5 24t29.5 74h59z" />
    <glyph glyph-name="uni0407" unicode="&#x407;" horiz-adv-x="272" 
d="M40 788q-23 0 -39.5 15.5t-16.5 40.5q0 23 16.5 39t39.5 16t39.5 -16t16.5 -39q0 -24 -16.5 -40t-39.5 -16zM232 788q-23 0 -39.5 15.5t-16.5 40.5q0 23 16.5 39t39.5 16t39.5 -16t16.5 -39q0 -24 -16.5 -40t-39.5 -16zM99 710h74v-710h-74v710z" />
    <glyph glyph-name="uni0472" unicode="&#x472;" horiz-adv-x="822" 
d="M411 -8q-77 0 -143 27.5t-115 76.5t-77 115.5t-28 143.5t28 143.5t77 115t115 76.5t143 28q76 0 142.5 -28t115.5 -76.5t77 -115t28 -143.5t-28 -143.5t-77 -115.5t-115.5 -76.5t-142.5 -27.5zM411 63q61 0 113.5 22.5t91 61.5t60.5 92.5t22 115.5t-22 115.5t-60.5 92.5
t-91 61.5t-113.5 22.5t-113.5 -22.5t-91.5 -61.5t-61 -92.5t-22 -115.5t22 -115.5t61 -92.5t91.5 -61.5t113.5 -22.5zM114 369q35 25 80.5 37.5t82.5 12.5t69.5 -8t65.5 -17.5t67 -17.5t74 -8q42 0 82 10t72 30l1 -67q-33 -17 -71.5 -26t-75.5 -9q-40 0 -78.5 8t-75 17
t-71.5 17t-68 8q-38 0 -75.5 -13.5t-74.5 -44.5z" />
    <glyph glyph-name="uni04E8" unicode="&#x4e8;" horiz-adv-x="822" 
d="M411 -8q-77 0 -143 27.5t-115 76.5t-77 115.5t-28 143.5t28 143.5t77 115t115 76.5t143 28q76 0 142.5 -28t115.5 -76.5t77 -115t28 -143.5t-28 -143.5t-77 -115.5t-115.5 -76.5t-142.5 -27.5zM411 63q61 0 113.5 22.5t91 61.5t60.5 92.5t22 115.5t-22 115.5t-60.5 92.5
t-91 61.5t-113.5 22.5t-113.5 -22.5t-91.5 -61.5t-61 -92.5t-22 -115.5t22 -115.5t61 -92.5t91.5 -61.5t113.5 -22.5zM84 386h654v-61h-654v61z" />
    <glyph glyph-name="uni0492" unicode="&#x492;" horiz-adv-x="516" 
d="M496 638h-314v-638h-73v710h387v-72zM371 391v-61h-353v61h353z" />
    <glyph glyph-name="uni04B0" unicode="&#x4b0;" horiz-adv-x="619" 
d="M273 301l-260 409h86l211 -337l211 337h86l-260 -409v-301h-74v301zM506 241h-392v61h392v-61z" />
    <glyph glyph-name="uni04E2" unicode="&#x4e2;" horiz-adv-x="787" 
d="M99 710h73v-543l516 551v-718h-74v543l-515 -551v718zM261 864h288v-54h-288v54z" />
    <glyph glyph-name="uni04EE" unicode="&#x4ee;" horiz-adv-x="649" 
d="M293 168l-278 542h82l237 -464l246 464h77l-376 -710h-77zM194 864h288v-54h-288v54z" />
    <glyph glyph-name="uni0496" unicode="&#x496;" horiz-adv-x="967" 
d="M345 349l-322 361h92l318 -358v358h74v-358l319 358h92l-323 -361l352 -349h-99l-341 339v-339h-74v339l-340 -339h-100zM889 0h-22v72h92v-220h-70v148z" />
    <glyph glyph-name="uni049A" unicode="&#x49a;" horiz-adv-x="650" 
d="M99 710h73v-359l339 359h92l-341 -361l371 -349h-100l-361 339v-339h-73v710zM571 0h-22v72h92v-220h-70v148z" />
    <glyph glyph-name="uni04A2" unicode="&#x4a2;" horiz-adv-x="785" 
d="M99 710h73v-310h419v310h73v-710h-73v328h-419v-328h-73v710zM672 0h-22v72h92v-220h-70v148z" />
    <glyph glyph-name="uni04B2" unicode="&#x4b2;" horiz-adv-x="665" 
d="M269 364l-247 346h85l208 -290l208 290h85l-245 -346l261 -364h-84l-224 309l-223 -309h-87zM584 0h-22v72h92v-220h-70v148z" />
    <glyph glyph-name="uni04B6" unicode="&#x4b6;" horiz-adv-x="704" 
d="M509 0v313q-48 -17 -103.5 -27.5t-118.5 -10.5q-111 0 -175.5 54t-64.5 158v223h74v-208q0 -44 13.5 -74t37 -48t55.5 -26t70 -8q56 0 108.5 9t103.5 29v326h74v-710h-74zM591 0h-22v72h92v-220h-70v148z" />
    <glyph glyph-name="uni0430" unicode="&#x430;" horiz-adv-x="618" 
d="M469 58q-32 -32 -75.5 -49t-93.5 -17q-56 0 -103 20t-81 55t-53 82t-19 101t19 101t53 82t81 55t103 20q50 0 93.5 -17t75.5 -49v58h70v-500h-70v58zM301 58q57 0 100 24t68 62v212q-24 38 -67.5 62t-100.5 24q-41 0 -74.5 -15t-58.5 -41t-38.5 -61t-13.5 -75t13.5 -75
t38.5 -61t58.5 -41t74.5 -15z" />
    <glyph glyph-name="uni0431" unicode="&#x431;" horiz-adv-x="621" 
d="M318 -8q-57 0 -104 20.5t-80.5 56.5t-52.5 86.5t-19 110.5v58q0 165 65.5 256.5t214.5 120.5l189 36v-66l-175 -33q-63 -11 -104 -31t-67 -50t-39.5 -70.5t-21.5 -93.5q37 57 91 83t111 26t103.5 -20t79.5 -54t50.5 -79t17.5 -96q0 -54 -19 -102t-53.5 -83t-82 -55.5
t-104.5 -20.5zM318 57q42 0 76.5 15t59.5 41.5t38.5 62t13.5 77.5q0 40 -13.5 74t-38.5 59t-59 38.5t-75 13.5q-42 0 -76.5 -14.5t-59 -39.5t-38 -58.5t-13.5 -71.5q0 -42 13.5 -78t37.5 -62.5t58 -41.5t76 -15z" />
    <glyph glyph-name="uni0432" unicode="&#x432;" horiz-adv-x="532" 
d="M79 500h211q80 0 123 -34.5t43 -97.5q0 -32 -14.5 -58.5t-42.5 -43.5q45 -15 67.5 -47t22.5 -76q0 -30 -10.5 -56t-32 -45.5t-55.5 -30.5t-81 -11h-231v500zM298 287q16 0 31.5 4.5t27.5 13.5t19 23t7 34t-7 34.5t-19 23.5t-27.5 13.5t-31.5 4.5h-149v-151h149zM317 62
q45 0 71.5 23t26.5 63q0 38 -26.5 61t-71.5 23h-168v-170h168z" />
    <glyph glyph-name="uni0433" unicode="&#x433;" horiz-adv-x="397" 
d="M79 500h302v-64h-233v-436h-69v500z" />
    <glyph glyph-name="uni0434" unicode="&#x434;" horiz-adv-x="580" 
d="M13 64h53l224 444l225 -444h52v-191h-65v127h-423v-127h-66v191zM288 373l-149 -309h300z" />
    <glyph glyph-name="uni0435" unicode="&#x435;" horiz-adv-x="573" 
d="M302 -8q-56 0 -103.5 20t-82 55t-53.5 82t-19 101t19 101t53 82t80 55t99 20q52 0 96 -18.5t76 -53.5t50.5 -85.5t18.5 -114.5h-420q3 -40 18.5 -72.5t40 -56t57.5 -36.5t70 -13q49 0 88.5 18.5t65.5 44.5l45 -49q-32 -34 -83.5 -57t-115.5 -23zM291 443q-29 0 -56.5 -9
t-50.5 -27.5t-40 -45.5t-24 -63h337q-4 36 -18.5 63t-36.5 45.5t-50.5 27.5t-60.5 9z" />
    <glyph glyph-name="uni0436" unicode="&#x436;" horiz-adv-x="745" 
d="M257 251l-233 249h83l231 -248v248h70v-247l230 247h83l-233 -249l255 -251h-89l-246 243v-243h-70v244l-247 -244h-89z" />
    <glyph glyph-name="uni0437" unicode="&#x437;" horiz-adv-x="455" 
d="M222 -8q-66 0 -114 25t-80 76l56 37q21 -35 52.5 -56t85.5 -21q63 0 90 26.5t27 63.5q0 42 -31.5 66t-87.5 24h-64v56h65q39 0 69.5 20t30.5 60q0 20 -8.5 34.5t-22.5 24.5t-32.5 14.5t-37.5 4.5q-86 0 -120 -64l-55 34q26 40 70 65.5t106 25.5q37 0 68 -9.5t53 -27.5
t34.5 -43t12.5 -55q0 -36 -18.5 -65.5t-52.5 -45.5q44 -15 68 -48t24 -76q0 -29 -12 -55.5t-35.5 -46.5t-58.5 -32t-82 -12z" />
    <glyph glyph-name="uni0438" unicode="&#x438;" horiz-adv-x="596" 
d="M79 500h69v-363l369 371v-508h-69v359l-369 -367v508z" />
    <glyph glyph-name="uni043A" unicode="&#x43a;" horiz-adv-x="496" 
d="M79 500h70v-248l239 248h87l-241 -250l268 -250h-93l-260 244v-244h-70v500z" />
    <glyph glyph-name="uni043B" unicode="&#x43b;" horiz-adv-x="518" 
d="M259 508l258 -508h-79l-178 365l-181 -365h-78z" />
    <glyph glyph-name="uni043C" unicode="&#x43c;" horiz-adv-x="678" 
d="M530 338l-191 -224l-191 224v-338h-69v509l260 -302l260 302v-509h-69v338z" />
    <glyph glyph-name="uni043D" unicode="&#x43d;" horiz-adv-x="588" 
d="M79 500h69v-212h292v212h69v-500h-69v224h-292v-224h-69v500z" />
    <glyph glyph-name="uni043E" unicode="&#x43e;" horiz-adv-x="607" 
d="M304 -8q-57 0 -105 20t-82.5 55t-53.5 82t-19 101t19 101t53.5 82t82.5 55t105 20t104.5 -20t82 -55t53.5 -82t19 -101t-19 -101t-53.5 -82t-82 -55t-104.5 -20zM304 58q42 0 76 15t58.5 41t38 61t13.5 75t-13.5 75t-38 61t-58.5 41t-76 15t-76 -15t-59 -41t-38.5 -61
t-13.5 -75t13.5 -75t38.5 -61t59 -41t76 -15z" />
    <glyph glyph-name="uni043F" unicode="&#x43f;" horiz-adv-x="579" 
d="M79 500h421v-500h-70v436h-281v-436h-70v500z" />
    <glyph glyph-name="uni0440" unicode="&#x440;" horiz-adv-x="618" 
d="M149 500v-58q32 32 75 49t94 17q56 0 103 -20t81 -55t53 -82t19 -101t-19 -101t-53 -82t-81 -55t-103 -20q-51 0 -94 17t-75 49v-242h-70v684h70zM317 58q40 0 74 15t58.5 41t38.5 61t14 75t-14 75t-38.5 61t-58.5 41t-74 15q-57 0 -101 -24t-67 -62v-212q23 -38 67 -62
t101 -24z" />
    <glyph glyph-name="uni0441" unicode="&#x441;" horiz-adv-x="521" 
d="M301 -8q-56 0 -103 20t-81.5 55t-53.5 82t-19 101t19 101t53.5 82t81.5 55t103 20q61 0 108.5 -22t81.5 -56l-45 -49q-26 26 -62 43.5t-83 17.5q-41 0 -74.5 -15t-58.5 -41t-38.5 -61t-13.5 -75t13.5 -75t38.5 -61t58.5 -41t74.5 -15q47 0 83 17.5t62 43.5l45 -49
q-34 -34 -81.5 -56t-108.5 -22z" />
    <glyph glyph-name="uni0442" unicode="&#x442;" horiz-adv-x="439" 
d="M181 436h-165v64h407v-64h-172v-436h-70v436z" />
    <glyph glyph-name="uni0443" unicode="&#x443;" horiz-adv-x="507" 
d="M218 34l-212 466h76l172 -389l174 389h76l-313 -684h-75z" />
    <glyph glyph-name="uni0444" unicode="&#x444;" horiz-adv-x="714" 
d="M322 -184v176h-4q-65 1 -116 22t-86 56t-53.5 81t-18.5 99q0 52 18.5 99t53.5 82t86 55.5t116 21.5h4v202h70v-202h4q65 -1 116 -21.5t86 -55.5t53.5 -82t18.5 -99q0 -53 -18.5 -99t-53.5 -81t-86 -56t-116 -22h-4v-176h-70zM396 56q49 1 86.5 16.5t63.5 42t39.5 61
t13.5 74.5t-13.5 75t-39.5 61.5t-63.5 42t-86.5 15.5h-4v-388h4zM322 444h-4q-48 0 -86 -15.5t-64 -42t-39.5 -61.5t-13.5 -75t13.5 -74.5t39.5 -61t63.5 -42t86.5 -16.5h4v388z" />
    <glyph glyph-name="uni0445" unicode="&#x445;" horiz-adv-x="509" 
d="M212 255l-190 245h81l152 -195l152 195h80l-190 -245l201 -255h-82l-161 206l-162 -206h-82z" />
    <glyph glyph-name="uni0446" unicode="&#x446;" horiz-adv-x="604" 
d="M571 -127h-66v127h-426v500h70v-436h277v436h70v-436h75v-191z" />
    <glyph glyph-name="uni0447" unicode="&#x447;" horiz-adv-x="529" 
d="M380 0v210q-72 -34 -151 -34q-87 0 -137.5 46.5t-50.5 131.5v146h70v-137q0 -35 10.5 -58t28 -37t41 -20t49.5 -6q31 0 68 8t72 28v222h70v-500h-70z" />
    <glyph glyph-name="uni0448" unicode="&#x448;" horiz-adv-x="793" 
d="M79 500h69v-436h214v436h69v-436h214v436h69v-500h-635v500z" />
    <glyph glyph-name="uni0449" unicode="&#x449;" horiz-adv-x="822" 
d="M789 -127h-65v127h-645v500h69v-436h214v436h69v-436h214v436h69v-436h75v-191z" />
    <glyph glyph-name="uni044A" unicode="&#x44a;" horiz-adv-x="554" 
d="M161 436h-144v64h214v-190h108q49 0 83.5 -13t56.5 -34.5t32.5 -49t10.5 -57.5t-10.5 -58.5t-33 -50t-57 -34.5t-83.5 -13h-177v436zM341 64q54 0 82.5 24t28.5 68t-28.5 67t-80.5 23h-112v-182h110z" />
    <glyph glyph-name="uni044B" unicode="&#x44b;" horiz-adv-x="678" 
d="M529 500h70v-500h-70v500zM79 500h70v-190h120q49 0 83.5 -13t56.5 -34.5t32.5 -49t10.5 -57.5t-10.5 -58.5t-33 -50t-57 -34.5t-83.5 -13h-189v500zM272 64q54 0 82.5 24t28.5 68t-28.5 67t-81.5 23h-124v-182h123z" />
    <glyph glyph-name="uni044C" unicode="&#x44c;" horiz-adv-x="484" 
d="M79 500h70v-190h120q49 0 83.5 -13t56.5 -34.5t32.5 -49t10.5 -57.5t-10.5 -58.5t-33 -50t-57 -34.5t-83.5 -13h-189v500zM272 64q54 0 82.5 24t28.5 68t-28.5 67t-81.5 23h-124v-182h123z" />
    <glyph glyph-name="uni044D" unicode="&#x44d;" horiz-adv-x="524" 
d="M223 -8q-62 0 -109.5 22t-80.5 56l45 49q26 -26 62 -43.5t83 -17.5q37 0 68.5 12.5t55.5 34.5t39.5 52.5t19.5 65.5h-238v63h237q-6 34 -21.5 62.5t-39 49.5t-54.5 32.5t-67 11.5q-47 0 -83 -17.5t-62 -43.5l-45 49q33 34 80.5 56t109.5 22q56 0 103 -20t81.5 -55
t53.5 -82t19 -101t-19 -101t-53.5 -82t-81.5 -55t-103 -20z" />
    <glyph glyph-name="uni044E" unicode="&#x44e;" horiz-adv-x="791" 
d="M251 287q6 47 27 87.5t53.5 70t74.5 46.5t92 17q54 0 100 -20t79 -55t51.5 -82t18.5 -101t-18.5 -101t-51.5 -82t-79 -55t-100 -20q-51 0 -94.5 18t-76 49t-53 73.5t-24.5 91.5h-101v-224h-70v500h70v-213h102zM498 58q39 0 72 15t56 41t36 61t13 75t-13 75t-36 61
t-56 41t-72 15t-72 -15t-56 -41t-36 -61t-13 -75t13 -75t36 -61t56 -41t72 -15z" />
    <glyph glyph-name="uni044F" unicode="&#x44f;" horiz-adv-x="509" 
d="M184 208q-61 11 -91 50.5t-30 91.5q0 32 10.5 59.5t32.5 47.5t57 31.5t83 11.5h184v-500h-70v197h-106l-147 -197h-79zM360 258v181h-119q-110 -2 -110 -91q0 -44 28 -67t82 -23h119z" />
    <glyph glyph-name="uni0455" unicode="&#x455;" horiz-adv-x="415" 
d="M206 -8q-60 0 -104 27.5t-70 75.5l56 37q20 -37 48 -57t72 -20q43 0 71.5 20t28.5 54q0 35 -23 54.5t-70 36.5l-42 16q-65 24 -90.5 61t-25.5 82q0 28 11 51.5t31 40.5t48 27t61 10q48 0 85.5 -21.5t59.5 -63.5l-56 -32q-12 25 -33.5 39.5t-55.5 14.5q-35 0 -58.5 -17.5
t-23.5 -47.5q0 -28 17.5 -48t63.5 -37l44 -16q63 -23 95 -58t32 -90q0 -29 -12 -54.5t-34 -44t-54 -29.5t-72 -11z" />
    <glyph glyph-name="uni0454" unicode="&#x454;" horiz-adv-x="524" 
d="M301 -8q-56 0 -103 20t-81.5 55t-53.5 82t-19 101t19 101t53.5 82t81.5 55t103 20q61 0 108.5 -22t81.5 -56l-45 -49q-26 26 -62 43.5t-83 17.5q-36 0 -67 -12t-54.5 -33t-39 -49.5t-21.5 -61.5h237v-63h-238q4 -35 19 -65.5t39 -52.5t56 -34.5t69 -12.5q47 0 83 17.5
t62 43.5l45 -49q-34 -34 -81.5 -56t-108.5 -22z" />
    <glyph glyph-name="uni0456" unicode="&#x456;" horiz-adv-x="228" 
d="M79 619q-20 17 -20 43q0 23 16 39.5t39 16.5t39 -16.5t16 -39.5q0 -26 -20 -43h-70zM79 500h70v-500h-70v500z" />
    <glyph glyph-name="uni0458" unicode="&#x458;" horiz-adv-x="236" 
d="M87 619q-20 17 -20 43q0 23 16 39.5t39 16.5t39 -16.5t16 -39.5q0 -26 -20 -43h-70zM-20 -120h25q48 0 65 23.5t17 69.5v527h70v-541q0 -72 -37 -107.5t-109 -35.5h-31v64z" />
    <glyph glyph-name="uni045F" unicode="&#x45f;" horiz-adv-x="583" 
d="M325 0v-127h-66v127h-180v500h69v-436h287v436h69v-500h-179z" />
    <glyph glyph-name="uni0459" unicode="&#x459;" horiz-adv-x="724" 
d="M358 310h153q50 0 84.5 -13t56 -34.5t31 -49t9.5 -57.5t-10 -58.5t-32 -50t-57 -34.5t-84 -13h-74l-178 362l-178 -362h-78l258 508zM390 246l91 -182h32q54 0 82.5 24t28.5 68t-28 67t-82 23h-124z" />
    <glyph glyph-name="uni045A" unicode="&#x45a;" horiz-adv-x="773" 
d="M399 0v226h-251v-226h-69v500h69v-211h251v211h69v-211h102q46 0 78.5 -12t53.5 -32t30.5 -46t9.5 -53q0 -28 -9.5 -54.5t-30.5 -46.5t-54 -32.5t-79 -12.5h-170zM674 145q0 38 -25.5 59.5t-73.5 21.5h-107v-163h105q48 0 74.5 22t26.5 60z" />
    <glyph glyph-name="uni0452" unicode="&#x452;" horiz-adv-x="577" 
d="M310 -120h36q46 0 67.5 21t21.5 72v326q0 63 -36 103t-101 40q-57 0 -95.5 -31t-53.5 -82v-329h-70v582h-74v54h74v74h70v-74h176v-54h-176v-151q28 38 70.5 57.5t92.5 19.5q44 0 79.5 -14.5t61 -41.5t39 -64.5t13.5 -83.5v-343q0 -76 -40.5 -110.5t-112.5 -34.5h-42v64z
" />
    <glyph glyph-name="uni045B" unicode="&#x45b;" horiz-adv-x="579" 
d="M79 582h-74v54h74v74h70v-74h176v-54h-176v-151q28 39 70.5 58t92.5 19q44 0 80 -14.5t61.5 -41t39.5 -64t14 -83.5v-305h-70v300q0 63 -36.5 102.5t-102.5 39.5q-57 0 -95.5 -30.5t-53.5 -82.5v-329h-70v582z" />
    <glyph glyph-name="uni0457" unicode="&#x457;" horiz-adv-x="228" 
d="M79 500h70v-500h-70v500zM22 576q-23 0 -39.5 15.5t-16.5 40.5q0 23 16.5 39t39.5 16t39.5 -16t16.5 -39q0 -24 -16.5 -40t-39.5 -16zM207 576q-23 0 -39.5 15.5t-16.5 40.5q0 23 16.5 39t39.5 16t39.5 -16t16.5 -39q0 -24 -16.5 -40t-39.5 -16z" />
    <glyph glyph-name="uni0475" unicode="&#x475;" horiz-adv-x="530" 
d="M260 -8l-260 508h81l180 -367l134 276q23 49 52.5 70t68.5 21v-65q-18 0 -32 -12t-30 -44z" />
    <glyph glyph-name="uni04AF" unicode="&#x4af;" horiz-adv-x="531" 
d="M230 3l-225 497h79l181 -422l182 422h79l-226 -497v-187h-70v187z" />
    <glyph glyph-name="uni04BB" unicode="&#x4bb;" horiz-adv-x="579" 
d="M79 710h70v-279q28 39 70.5 58t92.5 19q44 0 80 -14.5t61.5 -41t39.5 -64t14 -83.5v-305h-70v300q0 63 -36.5 102.5t-102.5 39.5q-57 0 -95.5 -30.5t-53.5 -82.5v-329h-70v710z" />
    <glyph glyph-name="uni04CF" unicode="&#x4cf;" horiz-adv-x="228" 
d="M79 710h70v-710h-70v710z" />
    <glyph glyph-name="uni04D9" unicode="&#x4d9;" horiz-adv-x="573" 
d="M271.983 508.969q55.9971 0 102.994 -19.999q46.9971 -19.998 81.4941 -54.9961q34.498 -34.998 53.4971 -81.9951t18.999 -100.994q0 -53.9961 -18.999 -100.993t-52.9971 -81.9951q-33.9971 -34.998 -79.4951 -54.9971q-45.4971 -19.999 -98.4932 -19.999
q-54.9971 0 -99.9941 19.999t-76.4951 55.9971q-31.498 35.9971 -48.4971 85.9941t-16.999 109.993h420.974q-2.99902 39.998 -18.498 72.4961t-40.498 55.9961q-24.998 23.499 -57.4961 36.498t-69.4961 12.999q-49.9971 0 -89.4941 -18.499
q-39.498 -18.498 -65.4961 -44.4971l-44.9971 48.9971q32.9971 33.998 84.4941 56.9971q51.4971 22.998 115.493 22.998zM282.982 57.9961q27.999 0 55.4971 9q27.498 8.99902 50.4971 27.498q22.998 18.499 39.9971 45.4971q16.999 26.999 23.999 62.9961h-336.979
q8.99902 -71.9951 54.9961 -108.993t111.993 -35.998z" />
    <glyph glyph-name="uni0463" unicode="&#x463;" horiz-adv-x="545" 
d="M415 500v-54h-210v-125h113q51 0 87.5 -12.5t60 -34t34.5 -49.5t11 -59q0 -32 -11.5 -62t-35 -53t-60 -37t-87.5 -14h-182v446h-118v54h118v210h70v-210h210zM205 63h121q55 0 86 27.5t31 75.5t-30.5 71.5t-85.5 23.5h-122v-198z" />
    <glyph glyph-name="uni0436.locl" horiz-adv-x="745" 
d="M257 251l-233 249h83l231 -248v458h70v-457l230 247h83l-233 -249l255 -251h-89l-246 243v-243h-70v244l-247 -244h-89z" />
    <glyph glyph-name="uni0433.locl" horiz-adv-x="415" 
d="M209 -8q-40 0 -72 11t-54 29.5t-34 44t-12 54.5q0 55 32 90t95 58l44 16q46 17 63.5 37t17.5 48q0 30 -23.5 47.5t-58.5 17.5q-34 0 -55.5 -14.5t-33.5 -39.5l-56 32q22 42 59.5 63.5t85.5 21.5q33 0 61 -10t48 -27t31 -40.5t11 -51.5q0 -45 -25.5 -82t-90.5 -61l-42 -16
q-47 -17 -70 -36.5t-23 -54.5q0 -34 28.5 -54t71.5 -20q44 0 72 20t48 57l56 -37q-26 -48 -70 -75.5t-104 -27.5z" />
    <glyph glyph-name="uni043A.locl" horiz-adv-x="498" 
d="M79 710h70v-441l235 231h93l-243 -238l269 -262h-95l-259 251v-251h-70v710z" />
    <glyph glyph-name="uni0448.locl" horiz-adv-x="879" 
d="M471 200q0 -61 32 -101.5t94 -40.5q48 0 82 27.5t51 77.5v337h70v-500h-70v66q-27 -38 -65.5 -56t-82.5 -18q-59 0 -97.5 25.5t-58.5 65.5q-27 -45 -72 -68t-97 -23q-88 0 -136.5 55t-48.5 148v305h70v-300q0 -61 32 -101.5t93 -40.5q47 0 82.5 27t52.5 85q-1 6 -1 12
v318h70v-300z" />
    <glyph glyph-name="uni0434.locl" horiz-adv-x="611" 
d="M292 -194q-56 0 -113 16.5t-99 46.5l38 59q32 -25 78.5 -41t97.5 -16q37 0 70.5 8t58 25t39 43.5t14.5 63.5q0 17 -3.5 37t-10.5 34q-32 -32 -75 -50t-95 -18q-55 0 -100.5 19t-78 52t-50.5 78t-18 98q0 52 18 97.5t50.5 78.5t78 52t100.5 19q51 0 93 -17t74 -49v58h70
v-393q20 -52 20 -103q0 -54 -22.5 -91.5t-58.5 -61.5t-82 -34.5t-94 -10.5zM294 80q56 0 99 24t66 62v190q-23 38 -66 62t-99 24q-39 0 -71.5 -14t-56 -38t-36.5 -57t-13 -72t13 -72t36.5 -57t56 -38t71.5 -14z" />
    <glyph glyph-name="uni0438.locl" horiz-adv-x="578" 
d="M429 68q-29 -39 -71 -57.5t-91 -18.5q-45 0 -81 14.5t-61.5 41t-39 64t-13.5 83.5v305h70v-300q0 -63 36.5 -102.5t101.5 -39.5q57 0 94.5 29.5t54.5 80.5v332h70v-500h-70v68z" />
    <glyph glyph-name="uni0432.locl" horiz-adv-x="541" 
d="M265 -4q-98 0 -145 51.5t-47 133.5v346q0 42 11 77.5t34.5 60.5t59 39t84.5 14q47 0 83 -15t61 -39.5t37.5 -57t12.5 -67.5q0 -54 -23 -92.5t-61 -56.5q26 -8 48.5 -25.5t39.5 -41.5t26.5 -54t9.5 -64q0 -101 -54.5 -155t-148.5 -54h-28zM143 419h113q57 0 92.5 31
t35.5 88q0 48 -31.5 81t-90.5 33q-54 0 -86.5 -28.5t-32.5 -85.5v-119zM298 62q33 0 57 12.5t39.5 32.5t22.5 46t7 52t-8 52t-25 47t-44 34.5t-66 13.5h-138v-176q0 -57 34 -85.5t88 -28.5h33z" />
    <glyph glyph-name="uni044A.aalt" horiz-adv-x="565" 
d="M533 152q0 -32 -10 -60.5t-31.5 -51t-55.5 -35.5t-82 -13h-9q-49 0 -84 13t-57.5 34.5t-33 50t-10.5 58.5v288h-144v64h214v-190h120q49 0 84 -13t57 -35t32 -50.5t10 -59.5zM230 148q0 -44 29 -68t83 -24h11q56 0 83.5 25.5t27.5 70.5q0 94 -110 94h-124v-98z" />
    <glyph glyph-name="uni0446.locl" horiz-adv-x="607" 
d="M267 -8q-45 0 -81 14.5t-61.5 41t-39 64t-13.5 83.5v305h70v-300q0 -63 36.5 -102.5t101.5 -39.5q19 0 41 5t42 17.5t37.5 33.5t28.5 54v332h70v-398q0 -17 8.5 -27.5t27.5 -10.5h39v-191h-66v127h-4q-10 0 -21 4.5t-20 14t-15 23t-6 31.5v1q-27 -37 -70.5 -59.5
t-104.5 -22.5z" />
    <glyph glyph-name="uni0442.locl" horiz-adv-x="879" 
d="M408 300q0 61 -32 101.5t-94 40.5q-48 0 -82 -27.5t-51 -77.5v-337h-70v500h70v-66q27 38 65.5 56t82.5 18q59 0 97.5 -25.5t58.5 -65.5q27 45 72 68t97 23q88 0 136.5 -55t48.5 -148v-305h-70v300q0 61 -32 101.5t-93 40.5q-47 0 -82.5 -27t-52.5 -85q1 -6 1 -13v-317
h-70v300z" />
    <glyph glyph-name="uni044E.locl" horiz-adv-x="791" 
d="M251 287q6 47 27 87.5t53.5 70t74.5 46.5t92 17q54 0 100 -20t79 -55t51.5 -82t18.5 -101t-18.5 -101t-51.5 -82t-79 -55t-100 -20q-51 0 -94.5 18t-76 49t-53 73.5t-24.5 91.5h-101v-224h-70v710h70v-423h102zM498 58q39 0 72 15t56 41t36 61t13 75t-13 75t-36 61
t-56 41t-72 15t-72 -15t-56 -41t-36 -61t-13 -75t13 -75t36 -61t56 -41t72 -15z" />
    <glyph glyph-name="uni044C.locl" horiz-adv-x="478" 
d="M143 500v-190h120q49 0 84 -13t57 -35t32 -50.5t10 -59.5q0 -32 -10 -60.5t-31.5 -51t-56 -35.5t-82.5 -13h-8q-49 0 -84 13t-57.5 34.5t-33 50t-10.5 58.5v352h70zM143 148q0 -44 29 -68t83 -24h11q55 0 83 25.5t28 70.5q0 94 -110 94h-124v-98z" />
    <glyph glyph-name="uni0449.locl" horiz-adv-x="908" 
d="M256 -8q-88 0 -136 55t-48 148v305h70v-300q0 -61 32 -101.5t93 -40.5q48 0 84.5 29t50.5 85q-1 6 -1 11v317h70v-300q0 -61 32 -101.5t93 -40.5q46 0 81.5 26t52.5 79v337h70v-398q0 -17 8 -27.5t28 -10.5h39v-191h-66v127h-5q-18 0 -36 14.5t-23 40.5v2
q-24 -30 -62 -47.5t-94 -17.5q-53 0 -96.5 22t-67.5 70q-32 -49 -77.5 -70.5t-91.5 -21.5z" />
    <glyph glyph-name="uni0437.locl" horiz-adv-x="477" 
d="M64 -34q9 -14 22.5 -30.5t32.5 -30.5t44 -23.5t55 -9.5q34 0 61.5 11t46 30t28.5 43t10 51q0 23 -8 47t-24.5 43.5t-43 32t-62.5 12.5h-82v67h80q26 0 48 10.5t37.5 28t24 39t8.5 43.5q0 20 -8 40t-23 36t-37.5 26t-51.5 10q-25 0 -46.5 -7.5t-39.5 -19t-32 -26
t-23 -28.5l-53 42q13 19 32 38t43.5 34t55.5 24t68 9q43 0 78 -14.5t59 -38.5t37 -55t13 -64q0 -61 -26 -99t-64 -58q57 -25 84.5 -70.5t27.5 -103.5q0 -42 -15 -78.5t-43 -63.5t-67.5 -42t-87.5 -15q-83 1 -135 34t-82 82z" />
    <glyph glyph-name="uni043F.locl" horiz-adv-x="579" 
d="M79 500h70v-69q28 39 70.5 58t92.5 19q44 0 80 -14.5t61.5 -41t39.5 -64t14 -83.5v-305h-70v300q0 63 -36.5 102.5t-102.5 39.5q-57 0 -95.5 -30.5t-53.5 -82.5v-329h-70v500z" />
    <glyph glyph-name="uni0431.locl" horiz-adv-x="596" 
d="M298 -8q-55 0 -101.5 20t-80.5 55t-53 82t-19 101q0 68 32.5 123.5t89.5 86.5q-41 11 -66.5 40.5t-25.5 71.5q0 61 39 99.5t128 38.5h234v-64h-230q-56 0 -80 -20t-24 -54q0 -36 30 -56t93 -20h36q58 0 104.5 -19.5t79.5 -53.5t50.5 -78.5t17.5 -94.5q0 -54 -19 -101
t-53 -82t-80.5 -55t-101.5 -20zM298 57q40 0 74 14.5t58.5 40.5t38 61.5t13.5 76.5q0 40 -13.5 73.5t-38 57.5t-58.5 37.5t-74 13.5q-41 0 -74.5 -13.5t-58 -37.5t-38 -57.5t-13.5 -73.5q0 -41 13.5 -76.5t38 -61.5t58.5 -40.5t74 -14.5z" />
    <glyph glyph-name="uni0439" unicode="&#x439;" horiz-adv-x="596" 
d="M79 500h69v-363l369 371v-508h-69v359l-369 -367v508zM462 710q-3 -72 -44 -110t-110 -38t-110.5 38t-43.5 110h57q2 -52 28.5 -76t68.5 -24t68 24t29 76h57z" />
    <glyph glyph-name="uni0451" unicode="&#x451;" horiz-adv-x="573" 
d="M302 -8q-56 0 -103.5 20t-82 55t-53.5 82t-19 101t19 101t53 82t80 55t99 20q52 0 96 -18.5t76 -53.5t50.5 -85.5t18.5 -114.5h-420q3 -40 18.5 -72.5t40 -56t57.5 -36.5t70 -13q49 0 88.5 18.5t65.5 44.5l45 -49q-32 -34 -83.5 -57t-115.5 -23zM291 443q-29 0 -56.5 -9
t-50.5 -27.5t-40 -45.5t-24 -63h337q-4 36 -18.5 63t-36.5 45.5t-50.5 27.5t-60.5 9zM407 576q-23 0 -39.5 16t-16.5 40q0 23 16.5 39t39.5 16t39 -16t16 -39q0 -25 -16 -40.5t-39 -15.5zM185 576q-23 0 -39.5 16t-16.5 40q0 23 16 39t40 16q23 0 39 -16t16 -39
q0 -25 -16.5 -40.5t-38.5 -15.5z" />
    <glyph glyph-name="uni045C" unicode="&#x45c;" horiz-adv-x="496" 
d="M79 500h70v-248l239 248h87l-241 -250l268 -250h-93l-260 244v-244h-70v500zM421.975 710h-87.9951l-89.9941 -160h58.9961z" />
    <glyph glyph-name="uni0491" unicode="&#x491;" horiz-adv-x="397" 
d="M79 500h235v127h67v-191h-233v-436h-69v500z" />
    <glyph glyph-name="uni0453" unicode="&#x453;" horiz-adv-x="397" 
d="M79 500h302v-64h-233v-436h-69v500zM381.977 710h-87.9941l-89.9951 -160h58.9971z" />
    <glyph glyph-name="uni045E" unicode="&#x45e;" horiz-adv-x="507" 
d="M218 34l-212 466h76l172 -389l174 389h76l-313 -684h-75zM409 710q-3 -72 -44 -110t-110 -38t-110.5 38t-43.5 110h57q2 -52 28.5 -76t68.5 -24t68 24t29 76h57z" />
    <glyph glyph-name="uni0439.aalt" horiz-adv-x="578" 
d="M429 68q-29 -39 -71 -57.5t-91 -18.5q-45 0 -81 14.5t-61.5 41t-39 64t-13.5 83.5v305h70v-300q0 -63 36.5 -102.5t101.5 -39.5q57 0 94.5 29.5t54.5 80.5v332h70v-500h-70v68zM439 710q-3 -72 -44 -110t-110 -38t-110.5 38t-43.5 110h57q2 -52 28.5 -76t68.5 -24t68 24
t29 76h57z" />
    <glyph glyph-name="uni0473" unicode="&#x473;" horiz-adv-x="607" 
d="M304 -8q-57 0 -105 20t-82.5 55t-53.5 82t-19 101t19 101t53.5 82t82.5 55t105 20t104.5 -20t82 -55t53.5 -82t19 -101t-19 -101t-53.5 -82t-82 -55t-104.5 -20zM304 58q42 0 76 15t58.5 41t38 61t13.5 75t-13.5 75t-38 61t-58.5 41t-76 15t-76 -15t-59 -41t-38.5 -61
t-13.5 -75t13.5 -75t38.5 -61t59 -41t76 -15zM99 278h409v-54h-409v54z" />
    <glyph glyph-name="uni04E9" unicode="&#x4e9;" horiz-adv-x="607" 
d="M304 -8q-57 0 -105 20t-82.5 55t-53.5 82t-19 101t19 101t53.5 82t82.5 55t105 20t104.5 -20t82 -55t53.5 -82t19 -101t-19 -101t-53.5 -82t-82 -55t-104.5 -20zM304 58q42 0 76 15t58.5 41t38 61t13.5 75t-13.5 75t-38 61t-58.5 41t-76 15t-76 -15t-59 -41t-38.5 -61
t-13.5 -75t13.5 -75t38.5 -61t59 -41t76 -15zM99 278h409v-54h-409v54z" />
    <glyph glyph-name="uni0493" unicode="&#x493;" horiz-adv-x="416" 
d="M98 500h302v-64h-233v-436h-69v500zM18 241v54h288v-54h-288z" />
    <glyph glyph-name="uni04B1" unicode="&#x4b1;" horiz-adv-x="531" 
d="M230 3l-225 497h79l181 -422l182 422h79l-226 -497v-187h-70v187zM91 3h349v-54h-349v54z" />
    <glyph glyph-name="uni04E3" unicode="&#x4e3;" horiz-adv-x="596" 
d="M79 500h69v-363l369 371v-508h-69v359l-369 -367v508zM164 679h288v-54h-288v54z" />
    <glyph glyph-name="uni04EF" unicode="&#x4ef;" horiz-adv-x="507" 
d="M218 34l-212 466h76l172 -389l174 389h76l-313 -684h-75zM111 679h288v-54h-288v54z" />
    <glyph glyph-name="uni0497" unicode="&#x497;" horiz-adv-x="769" 
d="M257 251l-233 249h83l231 -248v248h70v-247l230 247h83l-233 -249l255 -251h-89l-246 243v-243h-70v244l-247 -244h-89zM689 0h-30v64h95v-191h-65v127z" />
    <glyph glyph-name="uni049B" unicode="&#x49b;" horiz-adv-x="520" 
d="M79 500h70v-248l239 248h87l-241 -250l268 -250h-93l-260 244v-244h-70v500zM446 0h-30v64h95v-191h-65v127z" />
    <glyph glyph-name="uni04A3" unicode="&#x4a3;" horiz-adv-x="617" 
d="M79 500h69v-212h292v212h69v-500h-69v224h-292v-224h-69v500zM519 0h-30v64h95v-191h-65v127z" />
    <glyph glyph-name="uni04B3" unicode="&#x4b3;" horiz-adv-x="541" 
d="M212 255l-190 245h81l152 -195l152 195h80l-190 -245l201 -255h-82l-161 206l-162 -206h-82zM459 0h-30v64h95v-191h-65v127z" />
    <glyph glyph-name="uni04B7" unicode="&#x4b7;" horiz-adv-x="558" 
d="M380 0v210q-72 -34 -151 -34q-87 0 -137.5 46.5t-50.5 131.5v146h70v-137q0 -35 10.5 -58t28 -37t41 -20t49.5 -6q31 0 68 8t72 28v222h70v-500h-70zM460 0h-30v64h95v-191h-65v127z" />
    <glyph glyph-name="uniF6D4" unicode="&#xf6d4;" 
d="M154 710q-3 -72 -44 -110t-110 -38t-110.5 38t-43.5 110h57q2 -52 28.5 -76t68.5 -24t68 24t29 76h57z" />
    <glyph glyph-name="glyph488" 
d="M-33 500v127h67v-127h-67z" />
    <glyph glyph-name="glyph489" 
d="M-144 241v54h288v-54h-288z" />
    <glyph glyph-name="glyph490" 
d="M-204 280h409v-54h-409v54z" />
    <glyph glyph-name="glyph491" 
d="M-174 3h349v-54h-349v54z" />
    <glyph glyph-name="glyph492" 
d="M5 0h-30v64h95v-191h-65v127z" />
    <glyph glyph-name="uniF6D1" unicode="&#xf6d1;" 
d="M158 911q-2 -71 -45.5 -109.5t-112.5 -38.5t-113 38.5t-46 109.5h60q2 -50 29.5 -74t69.5 -24t69.5 24t29.5 74h59z" />
    <glyph glyph-name="glyph494" 
d="M-36 710v148h73v-148h-73z" />
    <glyph glyph-name="glyph495" 
d="M-297 364q35 25 80.5 37.5t82.5 12.5t69.5 -8t65.5 -17.5t67 -17.5t74 -8q42 0 82 10t72 30l1 -67q-33 -17 -71.5 -26t-75.5 -9q-40 0 -78.5 8t-75 17t-71.5 17t-68 8q-38 0 -75.5 -13.5t-74.5 -44.5z" />
    <glyph glyph-name="glyph496" horiz-adv-x="495" 
d="M424 391v-61h-353v61h353z" />
    <glyph glyph-name="glyph497" 
d="M-327 372h654v-61h-654v61z" />
    <glyph glyph-name="glyph498" horiz-adv-x="532" 
d="M462 241h-392v61h392v-61z" />
    <glyph glyph-name="glyph499" 
d="M-26 0h-22v72h92v-220h-70v148z" />
    <glyph glyph-name="uni20B8" unicode="&#x20b8;" horiz-adv-x="557" 
d="M35 710h487v-61h-487v61zM241 513h-206v60h487v-60h-207v-513h-74v513z" />
    <glyph glyph-name="uni20BD" unicode="&#x20bd;" horiz-adv-x="605" 
d="M137 146h-84v61h84v82h-84v69h84v352h195q56 0 100.5 -15t75 -42.5t47 -66.5t16.5 -86t-16.5 -86t-47 -66.5t-75 -43t-100.5 -15.5h-121v-82h211v-61h-211v-146h-74v146zM331 358q81 0 122.5 38t41.5 104q0 65 -41.5 103.5t-122.5 38.5h-120v-284h120z" />
    <glyph glyph-name="uni20B4" unicode="&#x20b4;" horiz-adv-x="609" 
d="M53 455h335q42 36 42 89q0 49 -37.5 76t-91.5 27q-92 0 -147 -69l-53 52q37 43 87.5 65.5t110.5 22.5q42 0 79.5 -12.5t65 -35t44 -54.5t16.5 -71q0 -50 -33 -90h81v-61h-499v61zM53 318h499v-61h-357q-30 -33 -30 -80q0 -54 40 -84t109 -30q54 0 97 25.5t69 60.5l57 -49
q-16 -22 -39 -41.5t-52 -34.5t-62.5 -23.5t-70.5 -8.5q-53 0 -94 13.5t-70 38t-44 59t-15 76.5q0 21 5 41t16 37h-58v61z" />
    <glyph glyph-name="ellipsis" unicode="&#x2026;" horiz-adv-x="722" 
d="M122 -8q-28 0 -47 19.5t-19 46.5q0 28 19.5 47.5t46.5 19.5q26 0 45.5 -19.5t19.5 -47.5q0 -27 -19 -46.5t-46 -19.5zM362 -8q-28 0 -47 19.5t-19 46.5q0 28 19.5 47.5t46.5 19.5q26 0 45.5 -19.5t19.5 -47.5q0 -27 -19 -46.5t-46 -19.5zM602 -8q-28 0 -47 19.5t-19 46.5
q0 28 19.5 47.5t46.5 19.5q26 0 45.5 -19.5t19.5 -47.5q0 -27 -19 -46.5t-46 -19.5z" />
    <glyph glyph-name="endash" unicode="&#x2013;" horiz-adv-x="570" 
d="M71 306h428v-66h-428v66z" />
    <glyph glyph-name="emdash" unicode="&#x2014;" horiz-adv-x="869" 
d="M71 306h727v-66h-727v66z" />
    <glyph glyph-name="guilsinglleft" unicode="&#x2039;" horiz-adv-x="302" 
d="M46 250l151 219l51 -35l-127 -184l127 -184l-51 -35z" />
    <glyph glyph-name="guilsinglright" unicode="&#x203a;" horiz-adv-x="301" 
d="M54 66l127 184l-127 184l51 35l150 -219l-150 -219z" />
    <glyph glyph-name="quoteleft" unicode="&#x2018;" horiz-adv-x="234" 
d="M123 569h46v-112h-108v113l56 139h50z" />
    <glyph glyph-name="quoteright" unicode="&#x2019;" horiz-adv-x="227" 
d="M113 592h-46v112h108v-113l-56 -139h-50z" />
    <glyph glyph-name="uni02BC" unicode="&#x2bc;" horiz-adv-x="227" 
d="M113 592h-46v112h108v-113l-56 -139h-50z" />
    <glyph glyph-name="quotedblleft" unicode="&#x201c;" horiz-adv-x="427" 
d="M123 569h46v-112h-108v113l56 139h50zM316 569h46v-112h-108v113l56 139h50z" />
    <glyph glyph-name="quotedblright" unicode="&#x201d;" horiz-adv-x="420" 
d="M113 592h-46v112h108v-113l-56 -139h-50zM306 592h-46v112h108v-113l-56 -139h-50z" />
    <glyph glyph-name="quotesinglbase" unicode="&#x201a;" horiz-adv-x="252" 
d="M118 0h-46v112h108v-113l-56 -139h-50z" />
    <glyph glyph-name="quotedblbase" unicode="&#x201e;" horiz-adv-x="445" 
d="M118 0h-46v112h108v-113l-56 -139h-50zM311 0h-46v112h108v-113l-56 -139h-50z" />
    <glyph glyph-name="bullet" unicode="&#x2022;" horiz-adv-x="426" 
d="M213 166q-28 0 -53 10.5t-43.5 29t-29 43.5t-10.5 53t10.5 53t29 43.5t43.5 29t53 10.5t53 -10.5t43.5 -29t29 -43.5t10.5 -53t-10.5 -53t-29 -43.5t-43.5 -29t-53 -10.5z" />
    <glyph glyph-name="dagger" unicode="&#x2020;" horiz-adv-x="507" 
d="M221 434h-191v66h191v210h66v-210h190v-66h-190v-532h-66v532z" />
    <glyph glyph-name="daggerdbl" unicode="&#x2021;" horiz-adv-x="541" 
d="M238 112h-191v66h191v256h-191v66h191v210h66v-210h190v-66h-190v-256h190v-66h-190v-210h-66v210z" />
    <glyph glyph-name="perthousand" unicode="&#x2030;" horiz-adv-x="735" 
d="M212 438q-29 0 -54.5 11t-45 29.5t-30.5 44t-11 55.5t11 55t30.5 44t45 29.5t54.5 10.5q30 0 56 -10.5t45.5 -29.5t30.5 -44t11 -55t-11 -55.5t-30.5 -44t-45.5 -29.5t-56 -11zM212 492q38 0 61.5 25t23.5 61q0 35 -23.5 60t-61.5 25q-36 0 -59.5 -25t-23.5 -60
q0 -36 23.5 -61t59.5 -25zM77 384h607v-60h-607v60zM212 -7q-29 0 -54.5 10.5t-45 29.5t-30.5 44t-11 55t11 55.5t30.5 44t45 29.5t54.5 11q30 0 56 -11t45.5 -29.5t30.5 -44t11 -55.5t-11 -55t-30.5 -44t-45.5 -29.5t-56 -10.5zM541 -7q-29 0 -54.5 10.5t-45 29.5t-30.5 44
t-11 55t11 55.5t30.5 44t45 29.5t54.5 11q30 0 56 -11t45.5 -29.5t31 -44t11.5 -55.5t-11.5 -55t-31 -44t-45.5 -29.5t-56 -10.5zM212 47q38 0 61.5 25t23.5 60q0 36 -23.5 61t-61.5 25q-36 0 -59.5 -25t-23.5 -61q0 -35 23.5 -60t59.5 -25zM541 47q38 0 61.5 25t23.5 60
q0 36 -23.5 61t-61.5 25q-36 0 -59.5 -25t-23.5 -61q0 -35 23.5 -60t59.5 -25z" />
    <glyph glyph-name="uni2117" unicode="&#x2117;" horiz-adv-x="820" 
d="M410 -9q-75 0 -141 28.5t-115.5 78t-78 115.5t-28.5 141t28.5 141t78 115.5t115.5 78.5t141 29t141 -29t115.5 -78.5t78 -115.5t28.5 -141t-28.5 -141t-78 -115.5t-115.5 -78t-141 -28.5zM410 49q63 0 118.5 24t97 65.5t65.5 97t24 118.5t-24 119t-65.5 97.5t-97 65.5
t-118.5 24t-118.5 -24t-97 -65.5t-65.5 -97.5t-24 -119t24 -118.5t65.5 -97t97 -65.5t118.5 -24zM321 522h96q54 0 88 -27.5t34 -80.5q0 -51 -34 -79.5t-88 -28.5h-40v-120h-56v336zM414 358q67 0 67 56q0 57 -67 57h-37v-113h37z" />
    <glyph glyph-name="trademark" unicode="&#x2122;" horiz-adv-x="798" 
d="M354 726l181 -193l181 193v-371h-54v249l-127 -139l-127 139v-249h-54v371zM137 660h-102v50h260v-50h-103v-305h-55v305z" />
    <glyph glyph-name="uni2116" unicode="&#x2116;" horiz-adv-x="1134" 
d="M937 405q-34 0 -62.5 12t-49.5 33t-32.5 49t-11.5 61t11.5 61t32.5 49t49.5 33t62.5 12q33 0 61.5 -12t49.5 -33t32.5 -49t11.5 -61t-11.5 -61t-32.5 -49t-49.5 -33t-61.5 -12zM937 460q42 0 69 28.5t27 71.5t-27 71.5t-69 28.5q-43 0 -70 -28.5t-27 -71.5t27 -71.5
t70 -28.5zM791 341h291v-62h-291v62zM173 543v-543h-74v718l516 -551v543h74v-718z" />
    <glyph glyph-name="uniF8FF" unicode="&#xf8ff;" horiz-adv-x="596" 
d="M298 -8q-53 0 -100 20.5t-82 55.5t-55.5 82t-20.5 100t20.5 100t55.5 82t82 55.5t100 20.5l-60 -151h88l-52 -137l188 194h-117l33 81q39 -13 71.5 -36.5t56 -56t37 -71t13.5 -81.5q0 -53 -20.5 -100t-55.5 -82t-82 -55.5t-100 -20.5z" />
    <glyph glyph-name="minus" unicode="&#x2212;" horiz-adv-x="590" 
d="M75 303h439v-58h-439v58z" />
    <glyph glyph-name="lessequal" unicode="&#x2264;" horiz-adv-x="590" 
d="M60 320l464 210v-64l-326 -146l326 -144v-64zM60 58h464v-58h-464v58z" />
    <glyph glyph-name="greaterequal" unicode="&#x2265;" horiz-adv-x="590" 
d="M65 176l326 144l-326 146v64l465 -210l-465 -208v64zM65 58h465v-58h-465v58z" />
    <glyph glyph-name="notequal" unicode="&#x2260;" horiz-adv-x="590" 
d="M72 415h283l88 122l45 -33l-65 -89h95v-58h-137l-119 -166h256v-57h-297l-86 -119l-45 33l62 86h-80v57h121l120 166h-241v58z" />
    <glyph glyph-name="approxequal" unicode="&#x2248;" horiz-adv-x="590" 
d="M87 188l108 73l198 -74l112 74v-67l-108 -75l-199 75l-111 -76v70zM87 375l108 73l198 -74l112 74v-67l-108 -75l-199 75l-111 -76v70z" />
    <glyph glyph-name="Euro" unicode="&#x20ac;" horiz-adv-x="757" 
d="M56 299h103q-2 14 -3 28t-1 28q0 11 0.5 21t1.5 20h-122l21 61h112q16 58 48.5 106t77.5 82.5t101 53.5t119 19t112.5 -15.5t93.5 -44.5l-27 -62q-35 26 -79 41.5t-100 15.5q-53 0 -97 -15.5t-78.5 -42t-59 -62t-38.5 -76.5h411l-21 -61h-403q-3 -21 -3 -41
q0 -14 1.5 -28t3.5 -28h368l-20 -61h-332q16 -40 41.5 -73.5t60 -57.5t76.5 -37t90 -13q51 0 97 14t82 40v-70q-28 -19 -75 -34t-104 -15q-60 0 -114.5 18t-99 50.5t-77 77.5t-50.5 100h-138z" />
    <glyph glyph-name="uniFB00" unicode="&#xfb00;" horiz-adv-x="678" 
d="M117 436h-97v64h95q-20 16 -31 39.5t-11 50.5q0 52 39 86t106 34h107v-64h-99q-37 0 -61 -18t-24 -53t24 -54t56 -21h105v-64h-139v-436h-70v436zM456 436h-97v64h95q-20 16 -31 39.5t-11 50.5q0 52 39 86t106 34h107v-64h-99q-37 0 -61 -18t-24 -53t24 -54t56 -21h105
v-64h-139v-436h-70v436z" />
    <glyph glyph-name="uniFB01" unicode="&#xfb01;" horiz-adv-x="567" 
d="M117 436h-97v64h95q-20 16 -31 39.5t-11 50.5q0 52 39 86t106 34h107v-64h-99q-37 0 -61 -18t-24 -53t24 -54t56 -21h105v-64h-139v-436h-70v436zM418 500h70v-500h-70v500zM418 619q-20 17 -20 43q0 23 16 39.5t39 16.5t39 -16.5t16 -39.5q0 -26 -20 -43h-70z" />
    <glyph glyph-name="uniFB03" unicode="&#xfb03;" horiz-adv-x="906" 
d="M757 619q-20 17 -20 43q0 23 16 39.5t39 16.5t39 -16.5t16 -39.5q0 -26 -20 -43h-70zM456 436h-97v64h95q-20 16 -31 39.5t-11 50.5q0 52 39 86t106 34h107v-64h-99q-37 0 -61 -18t-24 -53t24 -54t56 -21h105v-64h-139v-436h-70v436zM757 500h70v-500h-70v500zM117 436
h-97v64h95q-20 16 -31 39.5t-11 50.5q0 52 39 86t106 34h107v-64h-99q-37 0 -61 -18t-24 -53t24 -54t56 -21h105v-64h-139v-436h-70v436z" />
    <glyph glyph-name="uniFB02" unicode="&#xfb02;" horiz-adv-x="567" 
d="M117 436h-97v64h95q-20 16 -31 39.5t-11 50.5q0 52 39 86t106 34h107v-64h-99q-37 0 -61 -18t-24 -53t24 -54t56 -21h105v-64h-139v-436h-70v436zM418 710h70v-710h-70v710z" />
    <glyph glyph-name="uniFB04" unicode="&#xfb04;" horiz-adv-x="906" 
d="M456 436h-97v64h95q-20 16 -31 39.5t-11 50.5q0 52 39 86t106 34h107v-64h-99q-37 0 -61 -18t-24 -53t24 -54t56 -21h105v-64h-139v-436h-70v436zM757 710h70v-710h-70v710zM117 436h-97v64h95q-20 16 -31 39.5t-11 50.5q0 52 39 86t106 34h107v-64h-99q-37 0 -61 -18
t-24 -53t24 -54t56 -21h105v-64h-139v-436h-70v436z" />
    <glyph glyph-name="uni27D1" unicode="&#x27d1;" horiz-adv-x="212" 
d="M71 619q-20 17 -20 43q0 23 16 39.5t39 16.5t39 -16.5t16 -39.5q0 -26 -20 -43h-70z" />
    <glyph glyph-name="breve" unicode="&#x2d8;" 
d="M0 577q-72 0 -110.5 38t-42.5 95h56q3 -37 27.5 -60.5t69.5 -23.5t69.5 23.5t28.5 60.5h55q-4 -57 -42.5 -95t-110.5 -38z" />
    <glyph glyph-name="caron" unicode="&#x2c7;" 
d="M-157.99 671.959l30.998 44.9971l126.992 -93.9941l126.992 93.9941l30.998 -44.9971l-157.99 -115.993z" />
    <glyph glyph-name="circumflex" unicode="&#x2c6;" 
d="M158 602l-31 -45l-127 94l-127 -94l-31 45l158 116z" />
    <glyph glyph-name="dotaccent" unicode="&#x2d9;" 
d="M0 576q-23 0 -39.5 15.5t-16.5 40.5q0 23 16.5 39t39.5 16t39.5 -16t16.5 -39q0 -24 -16.5 -40t-39.5 -16z" />
    <glyph glyph-name="glyph539" 
d="M0 446q-23 0 -39.5 15.5t-16.5 40.5q0 23 16.5 39t39.5 16t39.5 -16t16.5 -39q0 -24 -16.5 -40t-39.5 -16z" />
    <glyph glyph-name="glyph540" 
d="M0 -186q-23 0 -39.5 15.5t-16.5 40.5q0 23 16.5 39t39.5 16t39.5 -16t16.5 -39q0 -24 -16.5 -40t-39.5 -16z" />
    <glyph glyph-name="hungarumlaut" unicode="&#x2dd;" 
d="M-78 710h82l-120 -161h-53zM88 710h82l-119 -161h-53z" />
    <glyph glyph-name="uni0326" unicode="&#x326;" 
d="M-12 -50h81l-106 -165h-54z" />
    <glyph glyph-name="ogonek" unicode="&#x2db;" 
d="M20 -192q-39 0 -69 21.5t-30 63.5q0 19 7.5 36t19.5 31t26.5 25t28.5 17l70 -2q-38 -17 -60.5 -41.5t-22.5 -50.5q0 -23 14.5 -34.5t38.5 -11.5q12 0 21 3l15 5v-49q-12 -8 -27.5 -10.5t-31.5 -2.5z" />
    <glyph glyph-name="ring" unicode="&#x2da;" 
d="M0 572q-20 0 -37 7t-29.5 19.5t-20 29t-7.5 35.5q0 39 27.5 65t66.5 26t66.5 -26t27.5 -65q0 -19 -7.5 -35.5t-20 -29t-30 -19.5t-36.5 -7zM0 612q21 0 36 14t15 37t-15 37t-36 14t-36 -14t-15 -37t15 -37t36 -14z" />
    <glyph glyph-name="tilde" unicode="&#x2dc;" 
d="M-166 587q8 43 35.5 66.5t61.5 23.5q22 0 40 -8t34.5 -17t31 -17t28.5 -8q23 0 34.5 12.5t16.5 37.5h55l-3 -16q-8 -42 -34.5 -66t-62.5 -24q-21 0 -39.5 8t-35 17t-31.5 17t-30 8q-22 0 -33 -13t-16 -38h-55z" />
    <glyph glyph-name="glyph546" 
d="M-22 710h71l-47 -166h-50z" />
    <glyph glyph-name="glyph547" 
d="M11.999 544.967h-80.9951l105.994 164.99h53.9961z" />
    <glyph glyph-name="glyph548" 
d="M-106 576q-23 0 -39.5 16t-16.5 40q0 23 16.5 39t39.5 16t39.5 -16t16.5 -39q0 -24 -16.5 -40t-39.5 -16zM106 576q-23 0 -39.5 16t-16.5 40q0 23 16.5 39t39.5 16t39.5 -16t16.5 -39q0 -24 -16.5 -40t-39.5 -16z" />
    <glyph glyph-name="glyph549" 
d="M-258 -22l471 582l45 -37l-471 -582z" />
    <glyph glyph-name="glyph550" 
d="M-159 636h319v-54h-319v54z" />
    <glyph glyph-name="glyph551" 
d="M-159 636h319v-54h-319v54z" />
    <glyph glyph-name="glyph552" 
d="M-153 303l276 181l31 -47l-277 -181z" />
    <glyph glyph-name="glyph553" 
d="M-154 338h308v-54h-308v54z" />
    <glyph glyph-name="zero.zero" horiz-adv-x="828" 
d="M414 -8q-76 0 -142.5 28t-115.5 77t-77.5 115t-28.5 143q0 76 28.5 142.5t77.5 115.5t115.5 77t142.5 28t142.5 -28t115.5 -77t77.5 -115.5t28.5 -142.5q0 -77 -28.5 -143t-77.5 -115t-115.5 -77t-142.5 -28zM414 57q63 0 116.5 23t92.5 63t61.5 94.5t22.5 117.5
q0 17 -2 34t-5 34l-552 -195q34 -78 104 -124.5t162 -46.5zM122 355q0 -34 6 -64l551 195q-35 75 -104.5 121t-160.5 46q-63 0 -116.5 -23t-92.5 -63t-61 -94.5t-22 -117.5z" />
    <glyph glyph-name="one.oldstyle" horiz-adv-x="235" 
d="M81 484l69 70v-554h-69v484z" />
    <glyph glyph-name="two.oldstyle" horiz-adv-x="506" 
d="M253 189q-43 0 -77 15.5t-57 41t-35.5 57t-12.5 63.5q0 38 14 71t39.5 58t60.5 39t76 14q42 0 77 -14t60.5 -39t39.5 -58t14 -71q0 -32 -9.5 -58.5t-25.5 -49.5t-37.5 -43.5t-46.5 -41.5l-140 -109h262v-64h-437zM262 247q25 0 47.5 9.5t38.5 26t25.5 38.5t9.5 46
t-9.5 45.5t-25.5 37.5t-38.5 25.5t-47.5 9.5q-27 0 -50 -9.5t-39 -25.5t-25 -37.5t-9 -45.5t9 -46t25 -38.5t39 -26t50 -9.5z" />
    <glyph glyph-name="three.oldstyle" horiz-adv-x="498" 
d="M224 -177q-63 0 -116.5 28t-83.5 76l54 41q20 -35 58.5 -57.5t86.5 -22.5q35 0 65.5 11.5t53 33t35.5 52t13 68.5t-12.5 69t-35.5 53t-55 34t-70 12h-58l156 255h-263v65h373l-160 -262q48 -8 85 -29t61.5 -51t37 -67.5t12.5 -78.5q0 -50 -17.5 -92t-48.5 -72.5t-75 -48
t-96 -17.5z" />
    <glyph glyph-name="four.oldstyle" horiz-adv-x="617" 
d="M425 30h-408l477 519v-454h95v-65h-95v-199h-69v199zM425 95v291l-265 -291h265z" />
    <glyph glyph-name="five.oldstyle" horiz-adv-x="506" 
d="M240 -177q-64 0 -118 28t-84 76l54 42q20 -35 58.5 -58t87.5 -23q35 0 65.5 12t52.5 33.5t34.5 51.5t12.5 67t-12.5 68t-34.5 53t-53 34.5t-68 12.5q-40 0 -69 -16.5t-47 -35.5l-49 22v351h353v-65h-283v-215q26 12 51 17t47 5q54 0 97.5 -17.5t74.5 -48.5t47.5 -73.5
t16.5 -91.5t-17 -91t-48 -72.5t-74 -48t-95 -17.5z" />
    <glyph glyph-name="six.oldstyle" horiz-adv-x="538" 
d="M277 -8q-49 0 -91.5 18t-73.5 49t-49 72.5t-18 89.5q0 35 11 67.5t28 61.5l217 360h81l-165 -272q19 8 33.5 10t30.5 2q47 0 89 -18t73 -49t49 -73t18 -89q0 -48 -18 -89.5t-49 -72.5t-74 -49t-92 -18zM277 57q36 0 66 13t51 35t33 52t12 64t-12 64t-33 52.5t-51 35.5
t-66 13q-35 0 -64.5 -13t-51 -35.5t-33.5 -52.5t-12 -64t12 -64t33.5 -52t51 -35t64.5 -13z" />
    <glyph glyph-name="seven.oldstyle" horiz-adv-x="486" 
d="M377 476h-357v65h463l-349 -710h-75z" />
    <glyph glyph-name="eight.oldstyle" horiz-adv-x="546" 
d="M274 -8q-48 0 -89 17.5t-72 48t-48.5 72t-17.5 89.5q0 66 33 118.5t87 80.5q-29 22 -46.5 55.5t-17.5 74.5q0 37 13.5 68t36.5 53.5t54 35.5t67 13q35 0 66 -13t54 -35.5t36.5 -53.5t13.5 -68q0 -41 -17 -74.5t-46 -55.5q54 -28 87 -80.5t33 -118.5q0 -48 -18 -89.5
t-48.5 -72t-72 -48t-88.5 -17.5zM274 652q-42 0 -71.5 -29.5t-29.5 -74.5q0 -22 8 -41t21.5 -32.5t32 -21.5t39.5 -8t39.5 8t32 21.5t21.5 32.5t8 41q0 45 -29.5 74.5t-71.5 29.5zM274 58q33 0 61 12.5t48.5 34t32.5 51t12 63.5t-12 63t-32.5 50.5t-48.5 34t-61 12.5
t-61.5 -12.5t-49 -34t-32.5 -50.5t-12 -63t12 -63.5t32.5 -51t49 -34t61.5 -12.5z" />
    <glyph glyph-name="nine.oldstyle" horiz-adv-x="525" 
d="M257.984 548.967q48.9971 0 91.4941 -17.999q42.498 -17.999 73.4961 -48.9971t48.9961 -72.4961q17.999 -41.4971 17.999 -89.4941q0 -34.998 -10.999 -67.4961t-27.998 -61.4961l-216.987 -359.978h-80.9951l164.99 271.983q-18.999 -8 -33.498 -10t-30.498 -2
q-46.9971 0 -88.9941 17.999q-41.998 17.999 -72.9961 48.9971t-48.9971 72.9961q-17.999 41.9971 -17.999 88.9941q0 47.9971 17.999 89.4941q17.999 41.498 48.9971 72.4961t73.9961 48.9971q42.9971 17.999 91.9941 17.999zM257.984 483.971q-35.998 0 -65.9961 -12.999
q-29.998 -13 -50.9971 -34.998q-20.999 -21.999 -32.998 -51.9971t-11.999 -63.9961t11.999 -63.9961t32.998 -52.4971q20.999 -22.498 50.9971 -35.4971q29.998 -13 65.9961 -13q34.998 0 64.4961 13q29.498 12.999 50.9971 35.4971q21.498 22.499 33.498 52.4971
q11.999 29.998 11.999 63.9961t-11.999 63.9961q-12 29.998 -33.498 51.9971q-21.499 21.998 -50.9971 34.998q-29.498 12.999 -64.4961 12.999z" />
    <glyph glyph-name="zero.oldstyle" horiz-adv-x="651" 
d="M326 -8q-61 0 -112 22t-88.5 59.5t-58.5 88.5t-21 108t21 108t58.5 88.5t88.5 59.5t112 22q60 0 111.5 -22t88.5 -59.5t58 -88.5t21 -108t-21 -108t-58 -88.5t-88.5 -59.5t-111.5 -22zM326 57q47 0 85.5 16.5t65.5 45.5t42 68t15 83t-15 83t-42 68t-65.5 45.5t-85.5 16.5
t-85.5 -16.5t-66 -45.5t-42.5 -68t-15 -83t15 -83t42.5 -68t66 -45.5t85.5 -16.5z" />
    <glyph glyph-name="zero.oldstyle.zero" horiz-adv-x="651" 
d="M326 -8q-61 0 -112 22t-88.5 59.5t-58.5 88.5t-21 108t21 108t58.5 88.5t88.5 59.5t112 22q60 0 111.5 -22t88.5 -59.5t58 -88.5t21 -108t-21 -108t-58 -88.5t-88.5 -59.5t-111.5 -22zM117 270q0 -32 7 -59l382 170q-26 46 -72.5 74t-107.5 28q-47 0 -85.5 -16.5
t-66 -45.5t-42.5 -68t-15 -83zM326 57q47 0 85.5 16.5t65.5 45.5t42 68t15 83q0 31 -7 56l-381 -169q26 -45 72.5 -72.5t107.5 -27.5z" />
    <glyph glyph-name="one.tnum" horiz-adv-x="590" 
d="M127 65h138v580h-87v65h157v-645h138v-65h-346v65z" />
    <glyph glyph-name="two.tnum" horiz-adv-x="590" 
d="M343 315q-31 -10 -53 -10q-44 1 -81.5 17t-64.5 44t-42 65t-15 79q0 44 16 82t44.5 66t67 44t82.5 16t82.5 -16t67 -44t45 -66t16.5 -82q0 -31 -7 -59t-21.5 -56.5t-37.5 -58.5t-54 -64l-187 -207h310v-65h-457zM297 366q30 0 56 11t45 30.5t29.5 45.5t10.5 57
q0 30 -10.5 56.5t-29.5 45.5t-45 30t-56 11q-31 0 -57 -11t-44.5 -30t-29 -45.5t-10.5 -56.5q0 -31 10.5 -57t29 -45.5t44.5 -30.5t57 -11z" />
    <glyph glyph-name="three.tnum" horiz-adv-x="590" 
d="M268 -8q-63 0 -116.5 28t-83.5 76l54 41q20 -35 58.5 -57.5t86.5 -22.5q35 0 65.5 11.5t53 33t35.5 52t13 68.5t-12.5 69t-35.5 53t-55 34t-70 12h-58l156 255h-263v65h373l-160 -262q48 -8 85 -29t61.5 -51t37 -67.5t12.5 -78.5q0 -50 -17.5 -92t-48.5 -72.5t-75 -48
t-96 -17.5z" />
    <glyph glyph-name="four.tnum" horiz-adv-x="590" 
d="M403 199h-408l477 519v-454h95v-65h-95v-199h-69v199zM403 264v291l-265 -291h265z" />
    <glyph glyph-name="five.tnum" horiz-adv-x="590" 
d="M282 -8q-64 0 -118 28t-84 76l54 42q20 -35 58.5 -58t87.5 -23q35 0 65.5 12t52.5 33.5t34.5 51.5t12.5 67t-12.5 68t-34.5 53t-53 34.5t-68 12.5q-40 0 -69 -16.5t-47 -35.5l-49 22v351h353v-65h-283v-215q26 12 51 17t47 5q54 0 97.5 -17.5t74.5 -48.5t47.5 -73.5
t16.5 -91.5t-17 -91t-48 -72.5t-74 -48t-95 -17.5z" />
    <glyph glyph-name="six.tnum" horiz-adv-x="590" 
d="M302 -8q-49 0 -91.5 18t-73.5 49t-49 72.5t-18 89.5q0 35 11 67.5t28 61.5l217 360h81l-165 -272q19 8 33.5 10t30.5 2q47 0 89 -18t73 -49t49 -73t18 -89q0 -48 -18 -89.5t-49 -72.5t-74 -49t-92 -18zM302 57q36 0 66 13t51 35t33 52t12 64t-12 64t-33 52.5t-51 35.5
t-66 13q-35 0 -64.5 -13t-51 -35.5t-33.5 -52.5t-12 -64t12 -64t33.5 -52t51 -35t64.5 -13z" />
    <glyph glyph-name="seven.tnum" horiz-adv-x="590" 
d="M431 645h-357v65h463l-349 -710h-75z" />
    <glyph glyph-name="eight.tnum" horiz-adv-x="590" 
d="M295 -8q-48 0 -89 17.5t-72 48t-48.5 72t-17.5 89.5q0 66 33 118.5t87 80.5q-29 22 -46.5 55.5t-17.5 74.5q0 37 13.5 68t36.5 53.5t54 35.5t67 13q35 0 66 -13t54 -35.5t36.5 -53.5t13.5 -68q0 -41 -17 -74.5t-46 -55.5q54 -28 87 -80.5t33 -118.5q0 -48 -18 -89.5
t-48.5 -72t-72 -48t-88.5 -17.5zM295 652q-42 0 -71.5 -29.5t-29.5 -74.5q0 -22 8 -41t21.5 -32.5t32 -21.5t39.5 -8t39.5 8t32 21.5t21.5 32.5t8 41q0 45 -29.5 74.5t-71.5 29.5zM295 58q33 0 61 12.5t48.5 34t32.5 51t12 63.5t-12 63t-32.5 50.5t-48.5 34t-61 12.5
t-61.5 -12.5t-49 -34t-32.5 -50.5t-12 -63t12 -63.5t32.5 -51t49 -34t61.5 -12.5z" />
    <glyph glyph-name="nine.tnum" horiz-adv-x="590" 
d="M349 271q-19 -8 -33.5 -10t-31.5 -2q-47 0 -89 18t-73 49t-49 73t-18 89q0 48 18 89.5t49.5 73t74 49.5t91.5 18t91.5 -18t74 -49.5t49 -73t17.5 -89.5q0 -35 -11 -67.5t-28 -60.5l-217 -361h-80zM288 324q36 0 65.5 13t50.5 35t33 52t12 64t-12 64t-33 52.5t-50.5 35.5
t-65.5 13t-65.5 -13t-50.5 -35.5t-33 -52.5t-12 -64t12 -64t33 -52t50.5 -35t65.5 -13z" />
    <glyph glyph-name="zero.tnum" horiz-adv-x="590" 
d="M295 -8q-61 0 -112 22t-88.5 59.5t-58.5 88.5t-21 108t21 108t58.5 88.5t88.5 59.5t112 22q60 0 111.5 -22t88.5 -59.5t58 -88.5t21 -108t-21 -108t-58 -88.5t-88.5 -59.5t-111.5 -22zM295 57q47 0 85.5 16.5t65.5 45.5t42 68t15 83t-15 83t-42 68t-65.5 45.5t-85.5 16.5
t-85.5 -16.5t-66 -45.5t-42.5 -68t-15 -83t15 -83t42.5 -68t66 -45.5t85.5 -16.5z" />
    <glyph glyph-name="zero.tnum.zero" horiz-adv-x="590" 
d="M295 -8q-61 0 -112 22t-88.5 59.5t-58.5 88.5t-21 108t21 108t58.5 88.5t88.5 59.5t112 22q60 0 111.5 -22t88.5 -59.5t58 -88.5t21 -108t-21 -108t-58 -88.5t-88.5 -59.5t-111.5 -22zM86 270q0 -15 1.5 -29.5t5.5 -28.5l381 170q-26 45 -72 73t-107 28
q-47 0 -85.5 -16.5t-66 -45.5t-42.5 -68t-15 -83zM295 57q47 0 85.5 16.5t65.5 45.5t42 68t15 83q0 31 -7 56l-381 -169q26 -45 72.5 -72.5t107.5 -27.5z" />
    <glyph glyph-name="uni21B2" unicode="&#x21b2;" horiz-adv-x="820" 
d="M26 249l306 306l39 -41l-235 -235h551v403h59v-463h-610l235 -236l-39 -40z" />
    <glyph glyph-name="uni21B3" unicode="&#x21b3;" horiz-adv-x="820" 
d="M793.951 249l-305.98 306l-38.998 -41l234.985 -235h-550.966v403h-58.9971v-463h609.963l-234.985 -236l38.998 -40z" />
    <glyph glyph-name="uni21B0" unicode="&#x21b0;" horiz-adv-x="810" 
d="M26 248.984l306 -305.98l39 40.9971l-235 234.985h551v-402.975h59v462.972h-610l235 235.985l-39 39.9971z" />
    <glyph glyph-name="uni21B1" unicode="&#x21b1;" horiz-adv-x="810" 
d="M783.952 248.984l-305.981 -305.98l-38.9971 40.9971l234.985 234.985h-550.967v-402.975h-58.9961v462.972h609.963l-234.985 235.985l38.9971 39.9971z" />
    <glyph glyph-name="arrowleft" unicode="&#x2190;" horiz-adv-x="784" 
d="M26 251l306 306l39 -41l-235 -236h610v-59h-610l235 -236l-39 -40z" />
    <glyph glyph-name="arrowup" unicode="&#x2191;" horiz-adv-x="664" 
d="M332 720l306 -306l-41 -39l-236 235v-610h-59v610l-236 -235l-40 39z" />
    <glyph glyph-name="arrowright" unicode="&#x2192;" horiz-adv-x="784" 
d="M757.954 251l-305.981 306l-38.998 -41l234.986 -236h-609.963v-59h609.963l-234.986 -236l38.998 -40z" />
    <glyph glyph-name="arrowdown" unicode="&#x2193;" horiz-adv-x="666" 
d="M333 -10l-306 306l41 39l236 -235v610h59v-610l236 235l40 -39z" />
    <glyph glyph-name="uni2196" unicode="&#x2196;" horiz-adv-x="672" 
d="M142 474v-335h-57v433h433v-57h-335l460 -460l-40 -41z" />
    <glyph glyph-name="uni2197" unicode="&#x2197;" horiz-adv-x="672" 
d="M529.968 474v-335h56.9961v433h-432.974v-57h334.979l-459.972 -460l39.998 -41z" />
    <glyph glyph-name="uni2198" unicode="&#x2198;" horiz-adv-x="658" 
d="M525.968 97.9941v334.979h56.9971v-432.974h-432.974v56.9961h334.979l-459.973 459.973l39.998 40.9971z" />
    <glyph glyph-name="uni2199" unicode="&#x2199;" horiz-adv-x="657" 
d="M173 57h335v-57h-433v433h57v-335l460 460l41 -40z" />
    <glyph glyph-name="uni219E" unicode="&#x219e;" horiz-adv-x="785" 
d="M26 251l306 306l40 -41l-236 -236h186l277 277l39 -41l-236 -236h344v-59h-344l236 -236l-39 -40l-276 276h-187l236 -236l-40 -40z" />
    <glyph glyph-name="uni219F" unicode="&#x219f;" horiz-adv-x="682" 
d="M341 720l306 -306l-41 -40l-236 236v-186l277 -277l-41 -39l-236 236v-344h-59v344l-236 -236l-40 39l276 276v187l-236 -236l-40 40z" />
    <glyph glyph-name="uni21A0" unicode="&#x21a0;" horiz-adv-x="785" 
d="M758.954 251l-305.981 306l-39.998 -41l235.985 -236h-185.988l-276.983 277l-38.9971 -41l235.985 -236h-343.979v-59h343.979l-235.985 -236l38.9971 -40l275.983 276h186.988l-235.985 -236l39.998 -40z" />
    <glyph glyph-name="uni21A1" unicode="&#x21a1;" horiz-adv-x="684" 
d="M342 -10l-306 306l41 40l236 -236v186l-277 277l41 39l236 -236v344h59v-344l236 236l40 -39l-276 -276v-187l236 236l40 -40z" />
    <glyph glyph-name="uni21A2" unicode="&#x21a2;" horiz-adv-x="867" 
d="M24 250l306 306l41 -40l-237 -237h374l277 277l40 -40l-266 -266l266 -265l-40 -41l-276 276h-375l237 -235l-41 -41z" />
    <glyph glyph-name="uni21A3" unicode="&#x21a3;" horiz-adv-x="867" 
d="M842.948 250l-305.981 306l-40.9971 -40l236.985 -237h-373.977l-276.983 277l-39.998 -40l265.984 -266l-265.984 -265l39.998 -41l275.983 276h374.977l-236.985 -235l40.9971 -41z" />
    <glyph glyph-name="uni21A4" unicode="&#x21a4;" horiz-adv-x="846" 
d="M24 250l306 306l39 -41l-235 -236h552v221h58v-500h-58v220h-552l235 -236l-39 -40z" />
    <glyph glyph-name="uni21A5" unicode="&#x21a5;" horiz-adv-x="672" 
d="M336 720l306 -306l-41 -39l-236 235v-552h221v-58h-500v58h220v552l-236 -235l-40 39z" />
    <glyph glyph-name="uni21A6" unicode="&#x21a6;" horiz-adv-x="846" 
d="M822 250l-306 -306l-39 41l235 236h-553v-221h-57v500h57v-220h553l-235 236l39 40z" />
    <glyph glyph-name="uni21A7" unicode="&#x21a7;" horiz-adv-x="676" 
d="M88 710h500v-58h-220v-552l236 235l40 -39l-306 -306l-306 306l41 39l236 -235v552h-221v58z" />
    <glyph glyph-name="filledbox" unicode="&#x25a0;" horiz-adv-x="682" 
d="M91 500h500v-500h-500v500z" />
    <glyph glyph-name="H22073" unicode="&#x25a1;" horiz-adv-x="709" 
d="M104 500h501v-500h-501v500zM535 68v364h-361v-364h361z" />
    <glyph glyph-name="H18533" unicode="&#x25cf;" horiz-adv-x="622" 
d="M311 -10q-55 0 -103 21t-83.5 57t-56 84t-20.5 102t20.5 102t56 84t83.5 56.5t103 20.5t103.5 -20.5t84 -56.5t56 -84t20.5 -102t-20.5 -102t-56 -84t-84 -57t-103.5 -21z" />
    <glyph glyph-name="onethird" unicode="&#x2153;" horiz-adv-x="716" 
d="M62 662l57 54v-429h-57v375zM516 710h66l-500 -710h-66zM539 -5q-38 0 -73 17.5t-54 49.5l44 34q28 -49 84 -49q36 0 59 25.5t23 63.5q0 37 -25 61.5t-68 24.5h-39l84 150h-144v52h231l-87 -156q51 -11 79 -44.5t28 -87.5q0 -28 -10 -53.5t-28.5 -45t-44.5 -31t-59 -11.5
z" />
    <glyph glyph-name="uni2155" unicode="&#x2155;" horiz-adv-x="723" 
d="M62 662l57 54v-429h-57v375zM516 710h66l-500 -710h-66zM551 -5q-39 0 -73.5 16.5t-54.5 50.5l43 34q14 -22 35 -35.5t51 -13.5q35 0 58.5 25t23.5 62q0 38 -23.5 63t-61.5 25q-29 0 -44.5 -10.5t-24.5 -21.5l-39 15v219h216v-52h-159v-107q30 10 55 10q33 0 58.5 -11
t43.5 -30.5t27.5 -45t9.5 -54.5t-10 -54t-29 -44t-45 -30t-57 -11z" />
    <glyph glyph-name="uni2159" unicode="&#x2159;" horiz-adv-x="685" 
d="M62 662l57 54v-429h-57v375zM516 710h66l-500 -710h-66zM515 -5q-30 0 -55.5 11t-45 29.5t-30.5 44t-11 54.5q0 23 7.5 42.5t18.5 37.5l125 210h65l-92 -153q5 1 11 1.5t11 0.5q30 0 55.5 -10.5t43.5 -29t28.5 -44t10.5 -55.5q0 -29 -10.5 -54.5t-29 -44t-45 -29.5
t-57.5 -11zM515 47q38 0 61 25.5t23 61.5t-23 61.5t-61 25.5q-37 0 -60.5 -25.5t-23.5 -61.5t23.5 -61.5t60.5 -25.5z" />
    <glyph glyph-name="uni2150" unicode="&#x2150;" horiz-adv-x="706" 
d="M62 662l57 54v-429h-57v375zM516 710h66l-500 -710h-66zM616 372h-194v52h279l-200 -424h-60z" />
    <glyph glyph-name="oneeighth" unicode="&#x215b;" horiz-adv-x="723" 
d="M62 662l57 54v-429h-57v375zM516 710h66l-500 -710h-66zM544 -5q-28 0 -54 9.5t-45.5 27t-31 43t-11.5 57.5q0 42 20 69.5t49 43.5q-16 12 -26 33t-10 44q0 24 8.5 44t23.5 34t35 21.5t42 7.5t42 -7.5t35 -21.5t23.5 -34t8.5 -44q0 -23 -9.5 -44t-25.5 -33
q29 -16 48.5 -43.5t19.5 -69.5q0 -32 -11.5 -57.5t-31 -43t-45.5 -27t-54 -9.5zM544 270q23 0 38.5 15t15.5 38t-15.5 38.5t-38.5 15.5t-38.5 -15.5t-15.5 -38.5t15.5 -38t38.5 -15zM544 47q35 0 59 24.5t24 58.5q0 35 -24 59.5t-59 24.5t-59 -24.5t-24 -59.5
q0 -34 24 -58.5t59 -24.5z" />
    <glyph glyph-name="uni2151" unicode="&#x2151;" horiz-adv-x="729" 
d="M62 662l57 54v-429h-57v375zM516 710h66l-500 -710h-66zM558 429q30 0 55.5 -11t45 -29.5t30.5 -44t11 -54.5q0 -23 -7.5 -42.5t-18.5 -37.5l-125 -210h-65l92 153q-5 -1 -11 -1.5t-11 -0.5q-30 0 -55.5 10.5t-43.5 29t-28.5 44t-10.5 55.5q0 29 10.5 54.5t29 44
t44.5 29.5t58 11zM558 377q-38 0 -61 -25.5t-23 -61.5t23 -61.5t61 -25.5q37 0 60.5 25.5t23.5 61.5t-23.5 61.5t-60.5 25.5z" />
    <glyph glyph-name="uni2152" unicode="&#x2152;" horiz-adv-x="1080" 
d="M62 662l57 54v-429h-57v375zM516 710h66l-500 -710h-66zM450 375l57 54v-429h-57v375zM825 -5q-45 0 -85 17t-69 46t-46 69t-17 85q0 46 17 85.5t46 68.5t69 46t85 17q46 0 85.5 -17t69 -46t46.5 -68.5t17 -85.5q0 -45 -17 -85t-46.5 -69t-69 -46t-85.5 -17zM825 47
q35 0 64.5 13t51 35t33.5 52t12 65t-12 65t-33.5 52.5t-51 35t-64.5 12.5t-64 -12.5t-50 -35t-33 -52.5t-12 -65t12 -65t33 -52t50 -35t64 -13z" />
    <glyph glyph-name="twothirds" unicode="&#x2154;" horiz-adv-x="855" 
d="M176 461q-29 0 -54 9t-43.5 26t-29 40t-10.5 52q0 27 11 50.5t29.5 40.5t43 27t52.5 10q27 0 51.5 -10t43 -27t29 -40.5t10.5 -50.5q0 -21 -5 -39t-15 -35t-25 -34.5t-34 -39.5l-89 -100h163v-53h-282zM175 510q32 0 54 22.5t22 55.5q0 32 -22 54t-54 22t-54.5 -22
t-22.5 -54q0 -33 22.5 -55.5t54.5 -22.5zM655 710h66l-500 -710h-66zM678 -5q-38 0 -73 17.5t-54 49.5l44 34q28 -49 84 -49q36 0 59 25.5t23 63.5q0 37 -25 61.5t-68 24.5h-39l84 150h-144v52h231l-87 -156q51 -11 79 -44.5t28 -87.5q0 -28 -10 -53.5t-28.5 -45t-44.5 -31
t-59 -11.5z" />
    <glyph glyph-name="uni2156" unicode="&#x2156;" horiz-adv-x="862" 
d="M176 461q-29 0 -54 9t-43.5 26t-29 40t-10.5 52q0 27 11 50.5t29.5 40.5t43 27t52.5 10q27 0 51.5 -10t43 -27t29 -40.5t10.5 -50.5q0 -21 -5 -39t-15 -35t-25 -34.5t-34 -39.5l-89 -100h163v-53h-282zM175 510q32 0 54 22.5t22 55.5q0 32 -22 54t-54 22t-54.5 -22
t-22.5 -54q0 -33 22.5 -55.5t54.5 -22.5zM655 710h66l-500 -710h-66zM690 -5q-39 0 -73.5 16.5t-54.5 50.5l43 34q14 -22 35 -35.5t51 -13.5q35 0 58.5 25t23.5 62q0 38 -23.5 63t-61.5 25q-29 0 -44.5 -10.5t-24.5 -21.5l-39 15v219h216v-52h-159v-107q30 10 55 10
q33 0 58.5 -11t43.5 -30.5t27.5 -45t9.5 -54.5t-10 -54t-29 -44t-45 -30t-57 -11z" />
    <glyph glyph-name="uni2157" unicode="&#x2157;" horiz-adv-x="843" 
d="M151 281q-38 0 -73 17.5t-54 49.5l44 34q28 -49 84 -49q36 0 59 25.5t23 63.5q0 37 -25 61.5t-68 24.5h-39l84 150h-144v52h231l-87 -156q51 -11 79 -44.5t28 -87.5q0 -28 -10 -53.5t-28.5 -45t-44.5 -31t-59 -11.5zM636 710h66l-500 -710h-66zM671 -5q-39 0 -73.5 16.5
t-54.5 50.5l43 34q14 -22 35 -35.5t51 -13.5q35 0 58.5 25t23.5 62q0 38 -23.5 63t-61.5 25q-29 0 -44.5 -10.5t-24.5 -21.5l-39 15v219h216v-52h-159v-107q30 10 55 10q33 0 58.5 -11t43.5 -30.5t27.5 -45t9.5 -54.5t-10 -54t-29 -44t-45 -30t-57 -11z" />
    <glyph glyph-name="threeeighths" unicode="&#x215c;" horiz-adv-x="843" 
d="M151 281q-38 0 -73 17.5t-54 49.5l44 34q28 -49 84 -49q36 0 59 25.5t23 63.5q0 37 -25 61.5t-68 24.5h-39l84 150h-144v52h231l-87 -156q51 -11 79 -44.5t28 -87.5q0 -28 -10 -53.5t-28.5 -45t-44.5 -31t-59 -11.5zM636 710h66l-500 -710h-66zM664 -5q-28 0 -54 9.5
t-45.5 27t-31 43t-11.5 57.5q0 42 20 69.5t49 43.5q-16 12 -26 33t-10 44q0 24 8.5 44t23.5 34t35 21.5t42 7.5t42 -7.5t35 -21.5t23.5 -34t8.5 -44q0 -23 -9.5 -44t-25.5 -33q29 -16 48.5 -43.5t19.5 -69.5q0 -32 -11.5 -57.5t-31 -43t-45.5 -27t-54 -9.5zM664 270
q23 0 38.5 15t15.5 38t-15.5 38.5t-38.5 15.5t-38.5 -15.5t-15.5 -38.5t15.5 -38t38.5 -15zM664 47q35 0 59 24.5t24 58.5q0 35 -24 59.5t-59 24.5t-59 -24.5t-24 -59.5q0 -34 24 -58.5t59 -24.5z" />
    <glyph glyph-name="uni2158" unicode="&#x2158;" horiz-adv-x="902" 
d="M247 403h-237l294 313v-261h55v-52h-55v-116h-57v116zM247 455v130l-121 -130h121zM695 710h66l-500 -710h-66zM730 -5q-39 0 -73.5 16.5t-54.5 50.5l43 34q14 -22 35 -35.5t51 -13.5q35 0 58.5 25t23.5 62q0 38 -23.5 63t-61.5 25q-29 0 -44.5 -10.5t-24.5 -21.5l-39 15
v219h216v-52h-159v-107q30 10 55 10q33 0 58.5 -11t43.5 -30.5t27.5 -45t9.5 -54.5t-10 -54t-29 -44t-45 -30t-57 -11z" />
    <glyph glyph-name="uni215A" unicode="&#x215a;" horiz-adv-x="812" 
d="M162 281q-39 0 -73.5 16.5t-54.5 50.5l43 34q14 -22 35 -35.5t51 -13.5q35 0 58.5 25t23.5 62q0 38 -23.5 63t-61.5 25q-29 0 -44.5 -10.5t-24.5 -21.5l-39 15v219h216v-52h-159v-107q30 10 55 10q33 0 58.5 -11t43.5 -30.5t27.5 -45t9.5 -54.5t-10 -54t-29 -44t-45 -30
t-57 -11zM643 710h66l-500 -710h-66zM642 -5q-30 0 -55.5 11t-45 29.5t-30.5 44t-11 54.5q0 23 7.5 42.5t18.5 37.5l125 210h65l-92 -153q5 1 11 1.5t11 0.5q30 0 55.5 -10.5t43.5 -29t28.5 -44t10.5 -55.5q0 -29 -10.5 -54.5t-29 -44t-45 -29.5t-57.5 -11zM642 47
q38 0 61 25.5t23 61.5t-23 61.5t-61 25.5q-37 0 -60.5 -25.5t-23.5 -61.5t23.5 -61.5t60.5 -25.5z" />
    <glyph glyph-name="fiveeighths" unicode="&#x215d;" horiz-adv-x="850" 
d="M162 281q-39 0 -73.5 16.5t-54.5 50.5l43 34q14 -22 35 -35.5t51 -13.5q35 0 58.5 25t23.5 62q0 38 -23.5 63t-61.5 25q-29 0 -44.5 -10.5t-24.5 -21.5l-39 15v219h216v-52h-159v-107q30 10 55 10q33 0 58.5 -11t43.5 -30.5t27.5 -45t9.5 -54.5t-10 -54t-29 -44t-45 -30
t-57 -11zM643 710h66l-500 -710h-66zM671 -5q-28 0 -54 9.5t-45.5 27t-31 43t-11.5 57.5q0 42 20 69.5t49 43.5q-16 12 -26 33t-10 44q0 24 8.5 44t23.5 34t35 21.5t42 7.5t42 -7.5t35 -21.5t23.5 -34t8.5 -44q0 -23 -9.5 -44t-25.5 -33q29 -16 48.5 -43.5t19.5 -69.5
q0 -32 -11.5 -57.5t-31 -43t-45.5 -27t-54 -9.5zM671 270q23 0 38.5 15t15.5 38t-15.5 38.5t-38.5 15.5t-38.5 -15.5t-15.5 -38.5t15.5 -38t38.5 -15zM671 47q35 0 59 24.5t24 58.5q0 35 -24 59.5t-59 24.5t-59 -24.5t-24 -59.5q0 -34 24 -58.5t59 -24.5z" />
    <glyph glyph-name="seveneighths" unicode="&#x215e;" horiz-adv-x="758" 
d="M218 658h-194v52h279l-200 -423h-60zM551 710h66l-500 -710h-66zM579 -5q-28 0 -54 9.5t-45.5 27t-31 43t-11.5 57.5q0 42 20 69.5t49 43.5q-16 12 -26 33t-10 44q0 24 8.5 44t23.5 34t35 21.5t42 7.5t42 -7.5t35 -21.5t23.5 -34t8.5 -44q0 -23 -9.5 -44t-25.5 -33
q29 -16 48.5 -43.5t19.5 -69.5q0 -32 -11.5 -57.5t-31 -43t-45.5 -27t-54 -9.5zM579 270q23 0 38.5 15t15.5 38t-15.5 38.5t-38.5 15.5t-38.5 -15.5t-15.5 -38.5t15.5 -38t38.5 -15zM579 47q35 0 59 24.5t24 58.5q0 35 -24 59.5t-59 24.5t-59 -24.5t-24 -59.5
q0 -34 24 -58.5t59 -24.5z" />
    <glyph glyph-name="uni215F" unicode="&#x215f;" horiz-adv-x="388" 
d="M62 662l57 54v-429h-57v375zM516 710h66l-500 -710h-66z" />
    <glyph glyph-name="fraction" unicode="&#x2044;" horiz-adv-x="180" 
d="M308 710h66l-500 -710h-66z" />
    <glyph glyph-name="uni2074" unicode="&#x2074;" horiz-adv-x="387" 
d="M246 526h-237l294 313v-261h55v-52h-55v-116h-57v116zM246 578v130l-121 -130h121z" />
    <glyph glyph-name="uni2075" unicode="&#x2075;" horiz-adv-x="335" 
d="M163 404q-39 0 -73.5 16.5t-54.5 50.5l43 34q14 -22 35 -35.5t51 -13.5q35 0 58.5 25t23.5 62q0 38 -23.5 63t-61.5 25q-29 0 -44.5 -10.5t-24.5 -21.5l-39 15v219h216v-52h-159v-107q30 10 55 10q33 0 58.5 -11t43.5 -30.5t27.5 -45t9.5 -54.5t-10 -54t-29 -44t-45 -30
t-57 -11z" />
    <glyph glyph-name="uni2076" unicode="&#x2076;" horiz-adv-x="341" 
d="M172 404q-30 0 -55.5 11t-45 29.5t-30.5 44t-11 54.5q0 23 7.5 42.5t18.5 37.5l125 210h65l-92 -153q5 1 11 1.5t11 0.5q30 0 55.5 -10.5t43.5 -29t28.5 -44t10.5 -55.5q0 -29 -10.5 -54.5t-29 -44t-45 -29.5t-57.5 -11zM172 456q38 0 61 25.5t23 61.5t-23 61.5t-61 25.5
q-37 0 -60.5 -25.5t-23.5 -61.5t23.5 -61.5t60.5 -25.5z" />
    <glyph glyph-name="uni2077" unicode="&#x2077;" horiz-adv-x="308" 
d="M218 781h-194v52h279l-200 -423h-60z" />
    <glyph glyph-name="uni2078" unicode="&#x2078;" horiz-adv-x="358" 
d="M179 405q-28 0 -54 9.5t-45.5 27t-31 43t-11.5 57.5q0 42 20 69.5t49 43.5q-16 12 -26 33t-10 44q0 24 8.5 44t23.5 34t35 21.5t42 7.5t42 -7.5t35 -21.5t23.5 -34t8.5 -44q0 -23 -9.5 -44t-25.5 -33q29 -16 48.5 -43.5t19.5 -69.5q0 -32 -11.5 -57.5t-31 -43t-45.5 -27
t-54 -9.5zM179 680q23 0 38.5 15t15.5 38t-15.5 38.5t-38.5 15.5t-38.5 -15.5t-15.5 -38.5t15.5 -38t38.5 -15zM179 457q35 0 59 24.5t24 58.5q0 35 -24 59.5t-59 24.5t-59 -24.5t-24 -59.5q0 -34 24 -58.5t59 -24.5z" />
    <glyph glyph-name="uni2079" unicode="&#x2079;" horiz-adv-x="341" 
d="M169 839q30 0 55.5 -11t45 -29.5t30.5 -44t11 -54.5q0 -23 -7.5 -42.5t-18.5 -37.5l-125 -210h-65l92 153q-5 -1 -11 -1.5t-11 -0.5q-30 0 -55.5 10.5t-43.5 29t-28.5 44t-10.5 55.5q0 29 10.5 54.5t29 44t44.5 29.5t58 11zM169 787q-38 0 -61 -25.5t-23 -61.5t23 -61.5
t61 -25.5q37 0 60.5 25.5t23.5 61.5t-23.5 61.5t-60.5 25.5z" />
    <glyph glyph-name="uni2070" unicode="&#x2070;" horiz-adv-x="509" 
d="M254 404q-45 0 -85 17t-69 46t-46 69t-17 85q0 46 17 85.5t46 68.5t69 46t85 17q46 0 85.5 -17t69 -46t46.5 -68.5t17 -85.5q0 -45 -17 -85t-46.5 -69t-69 -46t-85.5 -17zM254 456q35 0 64.5 13t51 35t33.5 52t12 65t-12 65t-33.5 52.5t-51 35t-64.5 12.5t-64 -12.5
t-50 -35t-33 -52.5t-12 -65t12 -65t33 -52t50 -35t64 -13z" />
    <glyph glyph-name="uni2081" unicode="&#x2081;" horiz-adv-x="183" 
d="M62 260l57 54v-429h-57v375z" />
    <glyph glyph-name="uni2082" unicode="&#x2082;" horiz-adv-x="347" 
d="M176 59q-29 0 -54 9t-43.5 26t-29 40t-10.5 52q0 27 11 50.5t29.5 40.5t43 27t52.5 10q27 0 51.5 -10t43 -27t29 -40.5t10.5 -50.5q0 -21 -5 -39t-15 -35t-25 -34.5t-34 -39.5l-89 -100h163v-53h-282zM175 108q32 0 54 22.5t22 55.5q0 32 -22 54t-54 22t-54.5 -22
t-22.5 -54q0 -33 22.5 -55.5t54.5 -22.5z" />
    <glyph glyph-name="uni2083" unicode="&#x2083;" horiz-adv-x="328" 
d="M151 -121q-38 0 -73 17.5t-54 49.5l44 34q28 -49 84 -49q36 0 59 25.5t23 63.5q0 37 -25 61.5t-68 24.5h-39l84 150h-144v52h231l-87 -156q51 -11 79 -44.5t28 -87.5q0 -28 -10 -53.5t-28.5 -45t-44.5 -31t-59 -11.5z" />
    <glyph glyph-name="uni2084" unicode="&#x2084;" horiz-adv-x="387" 
d="M246 1h-237l294 313v-261h55v-52h-55v-116h-57v116zM246 53v130l-121 -130h121z" />
    <glyph glyph-name="uni2085" unicode="&#x2085;" horiz-adv-x="335" 
d="M163 -121q-39 0 -73.5 16.5t-54.5 50.5l43 34q14 -22 35 -35.5t51 -13.5q35 0 58.5 25t23.5 62q0 38 -23.5 63t-61.5 25q-29 0 -44.5 -10.5t-24.5 -21.5l-39 15v219h216v-52h-159v-107q30 10 55 10q33 0 58.5 -11t43.5 -30.5t27.5 -45t9.5 -54.5t-10 -54t-29 -44t-45 -30
t-57 -11z" />
    <glyph glyph-name="uni2086" unicode="&#x2086;" horiz-adv-x="341" 
d="M171 -121q-30 0 -55.5 11t-45 29.5t-30.5 44t-11 54.5q0 23 7.5 42.5t18.5 37.5l125 210h65l-92 -153q5 1 11 1.5t11 0.5q30 0 55.5 -10.5t43.5 -29t28.5 -44t10.5 -55.5q0 -29 -10.5 -54.5t-29 -44t-45 -29.5t-57.5 -11zM171 -69q38 0 61 25.5t23 61.5t-23 61.5
t-61 25.5q-37 0 -60.5 -25.5t-23.5 -61.5t23.5 -61.5t60.5 -25.5z" />
    <glyph glyph-name="uni2087" unicode="&#x2087;" horiz-adv-x="308" 
d="M218 256h-194v52h279l-200 -423h-60z" />
    <glyph glyph-name="uni2088" unicode="&#x2088;" horiz-adv-x="358" 
d="M179 -120q-28 0 -54 9.5t-45.5 27t-31 43t-11.5 57.5q0 42 20 69.5t49 43.5q-16 12 -26 33t-10 44q0 24 8.5 44t23.5 34t35 21.5t42 7.5t42 -7.5t35 -21.5t23.5 -34t8.5 -44q0 -23 -9.5 -44t-25.5 -33q29 -16 48.5 -43.5t19.5 -69.5q0 -32 -11.5 -57.5t-31 -43t-45.5 -27
t-54 -9.5zM179 155q23 0 38.5 15t15.5 38t-15.5 38.5t-38.5 15.5t-38.5 -15.5t-15.5 -38.5t15.5 -38t38.5 -15zM179 -68q35 0 59 24.5t24 58.5q0 35 -24 59.5t-59 24.5t-59 -24.5t-24 -59.5q0 -34 24 -58.5t59 -24.5z" />
    <glyph glyph-name="uni2089" unicode="&#x2089;" horiz-adv-x="341" 
d="M169 314q30 0 55.5 -11t45 -29.5t30.5 -44t11 -54.5q0 -23 -7.5 -42.5t-18.5 -37.5l-125 -210h-65l92 153q-5 -1 -11 -1.5t-11 -0.5q-30 0 -55.5 10.5t-43.5 29t-28.5 44t-10.5 55.5q0 29 10.5 54.5t29 44t44.5 29.5t58 11zM169 262q-38 0 -61 -25.5t-23 -61.5t23 -61.5
t61 -25.5q37 0 60.5 25.5t23.5 61.5t-23.5 61.5t-60.5 25.5z" />
    <glyph glyph-name="uni2080" unicode="&#x2080;" horiz-adv-x="509" 
d="M254 -120q-45 0 -85 17t-69 46t-46 69t-17 85q0 46 17 85.5t46 68.5t69 46t85 17q46 0 85.5 -17t69 -46t46.5 -68.5t17 -85.5q0 -45 -17 -85t-46.5 -69t-69 -46t-85.5 -17zM254 -68q35 0 64.5 13t51 35t33.5 52t12 65t-12 65t-33.5 52.5t-51 35t-64.5 12.5t-64 -12.5
t-50 -35t-33 -52.5t-12 -65t12 -65t33 -52t50 -35t64 -13z" />
    <glyph glyph-name="one.numr" horiz-adv-x="183" 
d="M62 662l57 54v-429h-57v375z" />
    <glyph glyph-name="two.numr" horiz-adv-x="347" 
d="M176 461q-29 0 -54 9t-43.5 26t-29 40t-10.5 52q0 27 11 50.5t29.5 40.5t43 27t52.5 10q27 0 51.5 -10t43 -27t29 -40.5t10.5 -50.5q0 -21 -5 -39t-15 -35t-25 -34.5t-34 -39.5l-89 -100h163v-53h-282zM175 510q32 0 54 22.5t22 55.5q0 32 -22 54t-54 22t-54.5 -22
t-22.5 -54q0 -33 22.5 -55.5t54.5 -22.5z" />
    <glyph glyph-name="three.numr" horiz-adv-x="328" 
d="M151 281q-38 0 -73 17.5t-54 49.5l44 34q28 -49 84 -49q36 0 59 25.5t23 63.5q0 37 -25 61.5t-68 24.5h-39l84 150h-144v52h231l-87 -156q51 -11 79 -44.5t28 -87.5q0 -28 -10 -53.5t-28.5 -45t-44.5 -31t-59 -11.5z" />
    <glyph glyph-name="four.numr" horiz-adv-x="387" 
d="M247 403h-237l294 313v-261h55v-52h-55v-116h-57v116zM247 455v130l-121 -130h121z" />
    <glyph glyph-name="five.numr" horiz-adv-x="335" 
d="M162 281q-39 0 -73.5 16.5t-54.5 50.5l43 34q14 -22 35 -35.5t51 -13.5q35 0 58.5 25t23.5 62q0 38 -23.5 63t-61.5 25q-29 0 -44.5 -10.5t-24.5 -21.5l-39 15v219h216v-52h-159v-107q30 10 55 10q33 0 58.5 -11t43.5 -30.5t27.5 -45t9.5 -54.5t-10 -54t-29 -44t-45 -30
t-57 -11z" />
    <glyph glyph-name="six.numr" horiz-adv-x="341" 
d="M172 281q-30 0 -55.5 11t-45 29.5t-30.5 44t-11 54.5q0 23 7.5 42.5t18.5 37.5l125 210h65l-92 -153q5 1 11 1.5t11 0.5q30 0 55.5 -10.5t43.5 -29t28.5 -44t10.5 -55.5q0 -29 -10.5 -54.5t-29 -44t-45 -29.5t-57.5 -11zM172 333q38 0 61 25.5t23 61.5t-23 61.5t-61 25.5
q-37 0 -60.5 -25.5t-23.5 -61.5t23.5 -61.5t60.5 -25.5z" />
    <glyph glyph-name="seven.numr" horiz-adv-x="308" 
d="M218 658h-194v52h279l-200 -423h-60z" />
    <glyph glyph-name="eight.numr" horiz-adv-x="358" 
d="M179 281q-28 0 -54 9.5t-45.5 27t-31 43t-11.5 57.5q0 42 20 69.5t49 43.5q-16 12 -26 33t-10 44q0 24 8.5 44t23.5 34t35 21.5t42 7.5t42 -7.5t35 -21.5t23.5 -34t8.5 -44q0 -23 -9.5 -44t-25.5 -33q29 -16 48.5 -43.5t19.5 -69.5q0 -32 -11.5 -57.5t-31 -43t-45.5 -27
t-54 -9.5zM179 556q23 0 38.5 15t15.5 38t-15.5 38.5t-38.5 15.5t-38.5 -15.5t-15.5 -38.5t15.5 -38t38.5 -15zM179 333q35 0 59 24.5t24 58.5q0 35 -24 59.5t-59 24.5t-59 -24.5t-24 -59.5q0 -34 24 -58.5t59 -24.5z" />
    <glyph glyph-name="nine.numr" horiz-adv-x="341" 
d="M169 716q30 0 55.5 -11t45 -29.5t30.5 -44t11 -54.5q0 -23 -7.5 -42.5t-18.5 -37.5l-125 -210h-65l92 153q-5 -1 -11 -1.5t-11 -0.5q-30 0 -55.5 10.5t-43.5 29t-28.5 44t-10.5 55.5q0 29 10.5 54.5t29 44t44.5 29.5t58 11zM169 664q-38 0 -61 -25.5t-23 -61.5t23 -61.5
t61 -25.5q37 0 60.5 25.5t23.5 61.5t-23.5 61.5t-60.5 25.5z" />
    <glyph glyph-name="zero.numr" horiz-adv-x="509" 
d="M254 281q-45 0 -85 17t-69 46t-46 69t-17 85q0 46 17 85.5t46 68.5t69 46t85 17q46 0 85.5 -17t69 -46t46.5 -68.5t17 -85.5q0 -45 -17 -85t-46.5 -69t-69 -46t-85.5 -17zM254 333q35 0 64.5 13t51 35t33.5 52t12 65t-12 65t-33.5 52.5t-51 35t-64.5 12.5t-64 -12.5
t-50 -35t-33 -52.5t-12 -65t12 -65t33 -52t50 -35t64 -13z" />
    <glyph glyph-name="zero.numr.zero" horiz-adv-x="491" 
d="M245 281q-45 0 -85 17t-69 46t-46 69t-17 85q0 46 17 85.5t46 68.5t69 46t85 17t85 -17t69.5 -46t46.5 -68.5t17 -85.5q0 -45 -17 -85t-46.5 -69t-69.5 -46t-85 -17zM86 498q0 -7 0.5 -13.5t1.5 -13.5l298 108q-20 38 -56.5 61t-84.5 23q-35 0 -64 -12.5t-50 -35
t-33 -52.5t-12 -65zM245 333q35 0 64.5 13t51 35t33.5 52t12 65q0 17 -3 32l-300 -109q19 -39 56 -63.5t86 -24.5z" />
    <glyph glyph-name="one.dnom" horiz-adv-x="183" 
d="M62 375l57 54v-429h-57v375z" />
    <glyph glyph-name="two.dnom" horiz-adv-x="347" 
d="M176 174q-29 0 -54 9t-43.5 26t-29 40t-10.5 52q0 27 11 50.5t29.5 40.5t43 27t52.5 10q27 0 51.5 -10t43 -27t29 -40.5t10.5 -50.5q0 -21 -5 -39t-15 -35t-25 -34.5t-34 -39.5l-89 -100h163v-53h-282zM175 223q32 0 54 22.5t22 55.5q0 32 -22 54t-54 22t-54.5 -22
t-22.5 -54q0 -33 22.5 -55.5t54.5 -22.5z" />
    <glyph glyph-name="three.dnom" horiz-adv-x="328" 
d="M151 -5q-38 0 -73 17.5t-54 49.5l44 34q28 -49 84 -49q36 0 59 25.5t23 63.5q0 37 -25 61.5t-68 24.5h-39l84 150h-144v52h231l-87 -156q51 -11 79 -44.5t28 -87.5q0 -28 -10 -53.5t-28.5 -45t-44.5 -31t-59 -11.5z" />
    <glyph glyph-name="four.dnom" horiz-adv-x="387" 
d="M246 117h-237l294 313v-261h55v-52h-55v-116h-57v116zM246 169v130l-121 -130h121z" />
    <glyph glyph-name="five.dnom" horiz-adv-x="335" 
d="M163 -5q-39 0 -73.5 16.5t-54.5 50.5l43 34q14 -22 35 -35.5t51 -13.5q35 0 58.5 25t23.5 62q0 38 -23.5 63t-61.5 25q-29 0 -44.5 -10.5t-24.5 -21.5l-39 15v219h216v-52h-159v-107q30 10 55 10q33 0 58.5 -11t43.5 -30.5t27.5 -45t9.5 -54.5t-10 -54t-29 -44t-45 -30
t-57 -11z" />
    <glyph glyph-name="six.dnom" horiz-adv-x="341" 
d="M171 -5q-30 0 -55.5 11t-45 29.5t-30.5 44t-11 54.5q0 23 7.5 42.5t18.5 37.5l125 210h65l-92 -153q5 1 11 1.5t11 0.5q30 0 55.5 -10.5t43.5 -29t28.5 -44t10.5 -55.5q0 -29 -10.5 -54.5t-29 -44t-45 -29.5t-57.5 -11zM171 47q38 0 61 25.5t23 61.5t-23 61.5t-61 25.5
q-37 0 -60.5 -25.5t-23.5 -61.5t23.5 -61.5t60.5 -25.5z" />
    <glyph glyph-name="seven.dnom" horiz-adv-x="308" 
d="M218 372h-194v52h279l-200 -424h-60z" />
    <glyph glyph-name="eight.dnom" horiz-adv-x="358" 
d="M179 -5q-28 0 -54 9.5t-45.5 27t-31 43t-11.5 57.5q0 42 20 69.5t49 43.5q-16 12 -26 33t-10 44q0 24 8.5 44t23.5 34t35 21.5t42 7.5t42 -7.5t35 -21.5t23.5 -34t8.5 -44q0 -23 -9.5 -44t-25.5 -33q29 -16 48.5 -43.5t19.5 -69.5q0 -32 -11.5 -57.5t-31 -43t-45.5 -27
t-54 -9.5zM179 270q23 0 38.5 15t15.5 38t-15.5 38.5t-38.5 15.5t-38.5 -15.5t-15.5 -38.5t15.5 -38t38.5 -15zM179 47q35 0 59 24.5t24 58.5q0 35 -24 59.5t-59 24.5t-59 -24.5t-24 -59.5q0 -34 24 -58.5t59 -24.5z" />
    <glyph glyph-name="nine.dnom" horiz-adv-x="341" 
d="M170 429q30 0 55.5 -11t45 -29.5t30.5 -44t11 -54.5q0 -23 -7.5 -42.5t-18.5 -37.5l-125 -210h-65l92 153q-5 -1 -11 -1.5t-11 -0.5q-30 0 -55.5 10.5t-43.5 29t-28.5 44t-10.5 55.5q0 29 10.5 54.5t29 44t44.5 29.5t58 11zM170 377q-38 0 -61 -25.5t-23 -61.5t23 -61.5
t61 -25.5q37 0 60.5 25.5t23.5 61.5t-23.5 61.5t-60.5 25.5z" />
    <glyph glyph-name="zero.dnom" horiz-adv-x="509" 
d="M254 -5q-45 0 -85 17t-69 46t-46 69t-17 85q0 46 17 85.5t46 68.5t69 46t85 17q46 0 85.5 -17t69 -46t46.5 -68.5t17 -85.5q0 -45 -17 -85t-46.5 -69t-69 -46t-85.5 -17zM254 47q35 0 64.5 13t51 35t33.5 52t12 65t-12 65t-33.5 52.5t-51 35t-64.5 12.5t-64 -12.5
t-50 -35t-33 -52.5t-12 -65t12 -65t33 -52t50 -35t64 -13z" />
    <glyph glyph-name="zero.dnom.zero" horiz-adv-x="489" 
d="M244 -5q-45 0 -85 17t-69 46t-46 69t-17 85q0 46 17 85.5t46 68.5t69 46t85 17t85 -17t69.5 -46t46.5 -68.5t17 -85.5q0 -45 -17 -85t-46.5 -69t-69.5 -46t-85 -17zM85 212q0 -7 0.5 -13.5t1.5 -13.5l298 108q-20 38 -56.5 61t-84.5 23q-35 0 -64 -12.5t-50 -35
t-33 -52.5t-12 -65zM244 47q35 0 64.5 13t51 35t33.5 52t12 65q0 17 -3 32l-300 -109q19 -39 56 -63.5t86 -24.5z" />
    <glyph glyph-name="hyphen.aalt" horiz-adv-x="381" 
d="M71 391h239v-72h-239v72z" />
    <glyph glyph-name="endash.aalt" horiz-adv-x="576" 
d="M74 388h428v-66h-428v66z" />
    <glyph glyph-name="emdash.aalt" horiz-adv-x="875" 
d="M74 389h727v-66h-727v66z" />
    <glyph glyph-name="questiondown.aalt" horiz-adv-x="508" 
d="M325 345h-57q-32 0 -59 -11t-46.5 -30t-30 -45.5t-10.5 -57.5t10.5 -57t29.5 -45.5t45 -30.5t56 -11t56 11t44.5 30.5t29 45.5t10.5 57h70q0 -44 -16.5 -82.5t-45 -66.5t-66.5 -44t-82 -16t-82 16t-66.5 44t-45 66.5t-16.5 82.5t16.5 82.5t45.5 66.5t68.5 44t85.5 16h56
v-65zM266 718q27 0 46 -19.5t19 -46.5q0 -18 -9 -33.5t-24 -23.5h-66q-14 8 -23 23.5t-9 33.5q0 27 19 46.5t47 19.5z" />
    <glyph glyph-name="exclamdown.aalt" horiz-adv-x="271" 
d="M171 294v-294h-71v294l14 205h44zM137 718q27 0 46 -19.5t19 -46.5q0 -18 -9 -33.5t-24 -23.5h-66q-14 8 -23.5 23.5t-9.5 33.5q0 27 19.5 46.5t47.5 19.5z" />
    <glyph glyph-name="guilsinglleft.aalt" horiz-adv-x="314" 
d="M51 310l151 219l51 -35l-127 -184l127 -184l-51 -35z" />
    <glyph glyph-name="guilsinglright.aalt" horiz-adv-x="314" 
d="M61 126l127 184l-127 184l51 35l151 -219l-151 -219z" />
    <glyph glyph-name="guillemotleft.aalt" horiz-adv-x="513" 
d="M250 310l151 219l51 -35l-127 -184l127 -184l-51 -35zM51 310l151 219l51 -35l-127 -184l127 -184l-51 -35z" />
    <glyph glyph-name="guillemotright.aalt" horiz-adv-x="513" 
d="M260 126l127 184l-127 184l51 35l151 -219l-151 -219zM61 126l127 184l-127 184l51 35l151 -219l-151 -219z" />
    <glyph glyph-name="parenleft.aalt" horiz-adv-x="256" 
d="M216.986 -59q-50.9961 107 -74.4951 205q-23.498 98 -23.498 208t23.498 208q23.499 98 74.4951 205l-55.9961 24q-26.998 -56 -46.9971 -107t-32.498 -102.5t-18.999 -107t-6.5 -120.5t6.5 -120.5t18.999 -107t32.498 -102.5t46.9971 -107z" />
    <glyph glyph-name="parenright.aalt" horiz-adv-x="256" 
d="M39 -59q51 107 74.5 205t23.5 208t-23.5 208t-74.5 205l56 24q27 -56 47 -107t32.5 -102.5t19 -107t6.5 -120.5t-6.5 -120.5t-19 -107t-32.5 -102.5t-47 -107z" />
    <glyph glyph-name="bracketleft.aalt" horiz-adv-x="309" 
d="M274.983 -81v59h-110.993v752h110.993v59h-175.989v-870h175.989z" />
    <glyph glyph-name="bracketright.aalt" horiz-adv-x="309" 
d="M34 -81v59h111v752h-111v59h176v-870h-176z" />
    <glyph glyph-name="braceleft.aalt" horiz-adv-x="311" 
d="M272.983 -81v59h-29.998q-44.9971 0 -58.4971 21q-13.499 21 -13.499 66v177q0 47 -10.499 72.5t-42.4971 39.5q31.998 14 42.4971 39.5t10.499 72.5v177q0 45 13.499 66q13.5 21 57.4971 21h30.998v59h-38.998q-70.9951 0 -98.9932 -36q-27.999 -36 -27.999 -106v-187
q0 -35 -10.999 -56t-49.9971 -21h-11.999v-58h11.999q38.998 0 49.9971 -21t10.999 -57v-186q0 -71 28.499 -106.5q28.498 -35.5 99.4932 -35.5h37.998z" />
    <glyph glyph-name="braceright.aalt" horiz-adv-x="312" 
d="M39 -81v59h30q45 0 58.5 21t13.5 66v177q0 47 10.5 72.5t42.5 39.5q-32 14 -42.5 39.5t-10.5 72.5v177q0 45 -13.5 66t-57.5 21h-31v59h39q71 0 99 -36t28 -106v-187q0 -35 11 -56t50 -21h12v-58h-12q-39 0 -50 -21t-11 -57v-186q0 -71 -28.5 -106.5t-99.5 -35.5h-38z
" />
    <glyph glyph-name="bar.aalt" horiz-adv-x="262" 
d="M99 802h64v-894h-64v894z" />
    <glyph glyph-name="brokenbar.aalt" horiz-adv-x="262" 
d="M99 802h64v-383h-64v383zM99 292h64v-384h-64v384z" />
    <glyph glyph-name="periodcentered.aalt" horiz-adv-x="273" 
d="M137 289q-28 0 -47 19.5t-19 46.5q0 28 19.5 47.5t46.5 19.5q26 0 45.5 -19.5t19.5 -47.5q0 -27 -19 -46.5t-46 -19.5z" />
    <glyph glyph-name="plus.aalt" horiz-adv-x="590" 
d="M76 386h190v183h59v-183h189v-58h-189v-188h-59v188h-190v58z" />
    <glyph glyph-name="minus.aalt" horiz-adv-x="590" 
d="M75 386h439v-58h-439v58z" />
    <glyph glyph-name="divide.aalt" horiz-adv-x="590" 
d="M295 436q-26 0 -45 18t-19 45q0 26 19 44.5t45 18.5t44 -18.5t18 -44.5t-18 -44.5t-44 -18.5zM75 390h439v-61h-439v61zM295 157q-26 0 -45 18t-19 45q0 26 19 44t45 18t44 -18t18 -44q0 -27 -18 -45t-44 -18z" />
    <glyph glyph-name="multiply.aalt" horiz-adv-x="590" 
d="M107 213l147 147l-150 150l42 41l149 -150l146 146l41 -40l-146 -146l149 -150l-41 -40l-149 149l-147 -147z" />
    <glyph glyph-name="equal.aalt" horiz-adv-x="590" 
d="M72 501h446v-58h-446v58zM72 277h446v-57h-446v57z" />
    <glyph glyph-name="plusminus.aalt" horiz-adv-x="590" 
d="M267 383h-191v58h191v149h58v-149h190v-58h-190v-152h-58v152zM76 148h439v-58h-439v58z" />
    <glyph glyph-name="less.aalt" horiz-adv-x="590" 
d="M125 351l289 273l42 -43l-246 -230l246 -231l-42 -42z" />
    <glyph glyph-name="greater.aalt" horiz-adv-x="590" 
d="M136 119l246 231l-246 230l42 43l289 -273l-289 -273z" />
    <glyph glyph-name="lessequal.aalt" horiz-adv-x="590" 
d="M60 411l464 210v-64l-326 -146l326 -144v-64zM60 149h464v-58h-464v58z" />
    <glyph glyph-name="greaterequal.aalt" horiz-adv-x="590" 
d="M66 264l326 144l-326 146v64l465 -210l-465 -208v64zM66 146h465v-58h-465v58z" />
    <glyph glyph-name="notequal.aalt" horiz-adv-x="590" 
d="M71 501h283l88 122l45 -33l-65 -89h95v-58h-137l-119 -166h256v-57h-297l-86 -119l-45 33l62 86h-80v57h121l120 166h-241v58z" />
    <glyph glyph-name="acute.aalt" 
d="M98.9941 913h-87.9951l-83.9941 -145h59.9961z" />
    <glyph glyph-name="breve.aalt" 
d="M-1 774q-34 0 -61.5 10.5t-47 28.5t-30.5 42t-12 52h53q4 -37 29 -60.5t70 -23.5t70.5 23.5t29.5 60.5h53q-2 -28 -13 -52t-31 -42t-47.5 -28.5t-62.5 -10.5z" />
    <glyph glyph-name="caron.aalt" 
d="M170.989 877.946l-170.989 -108.993l-170.989 108.993l28.998 48.9971l141.991 -93.9941l141.991 93.9941z" />
    <glyph glyph-name="cedilla.aalt" 
d="M11 0h50l-67 -165h-80z" />
    <glyph glyph-name="circumflex.aalt" 
d="M-171 817l171 109l171 -109l-29 -49l-142 94l-142 -94z" />
    <glyph glyph-name="dieresis.aalt" 
d="M112 788q-23 0 -39.5 16t-16.5 40q0 23 16.5 39t39.5 16t39 -16t16 -39q0 -25 -16 -40.5t-39 -15.5zM-110 788q-23 0 -39.5 16t-16.5 40q0 23 16 39t40 16q23 0 39 -16t16 -39q0 -25 -16.5 -40.5t-38.5 -15.5z" />
    <glyph glyph-name="dotaccent.aalt" 
d="M0 788q-23 0 -39.5 15.5t-16.5 40.5q0 23 16.5 39t39.5 16t39.5 -16t16.5 -39q0 -24 -16.5 -40t-39.5 -16z" />
    <glyph glyph-name="glyph694" 
d="M0 446q-23 0 -39.5 15.5t-16.5 40.5q0 23 16.5 39t39.5 16t39.5 -16t16.5 -39q0 -24 -16.5 -40t-39.5 -16z" />
    <glyph glyph-name="glyph695" 
d="M0 -191q-23 0 -39.5 15.5t-16.5 40.5q0 23 16.5 39t39.5 16t39.5 -16t16.5 -39q0 -24 -16.5 -40t-39.5 -16z" />
    <glyph glyph-name="uni0326.aalt" 
d="M-12 -50h81l-106 -165h-54z" />
    <glyph glyph-name="grave.aalt" 
d="M-100 913h88l84 -145h-60z" />
    <glyph glyph-name="hungarumlaut.aalt" 
d="M-99 913h84l-112 -145h-57zM101 913h84l-112 -145h-57z" />
    <glyph glyph-name="macron.aalt" 
d="M-144 864h288v-54h-288v54z" />
    <glyph glyph-name="ogonek.aalt" 
d="M22 -192q-20 0 -38 5.5t-32.5 16t-23 26.5t-8.5 37q0 19 7.5 36t19 31t26 25t28.5 17l74 -2q-39 -17 -61 -41.5t-22 -50.5q0 -23 14.5 -34.5t38.5 -11.5q11 0 20.5 3t15.5 5v-49q-13 -8 -28 -10.5t-31 -2.5z" />
    <glyph glyph-name="ring.aalt" 
d="M0 752q-20 0 -37 7t-29.5 19.5t-20 29t-7.5 35.5q0 39 27.5 65t66.5 26t66.5 -26t27.5 -65q0 -19 -7.5 -35.5t-20 -29t-30 -19.5t-36.5 -7zM0 792q21 0 36 14t15 37t-15 37t-36 14t-36 -14t-15 -37t15 -37t36 -14z" />
    <glyph glyph-name="tilde.aalt" 
d="M-166 806q8 43 35.5 66.5t61.5 23.5q22 0 40 -8t34.5 -17t31 -17t28.5 -8q23 0 34.5 12.5t16.5 37.5h55l-3 -16q-8 -42 -34.5 -66t-62.5 -24q-21 0 -39.5 8t-35 17t-31.5 17t-30 8q-22 0 -33 -13t-16 -38h-55z" />
    <glyph glyph-name="glyph703" 
d="M-166 389h333v-61h-333v61z" />
    <glyph glyph-name="glyph704" 
d="M-329 -17l610 787l48 -38l-611 -787z" />
    <glyph glyph-name="glyph705" 
d="M-200 262l366 242l35 -52l-367 -242z" />
    <glyph glyph-name="glyph706" 
d="M-199 405h399v-61h-399v61z" />
    <glyph glyph-name="glyph707" 
d="M-346 586h692v-61h-692v61z" />
    <glyph glyph-name="A.salt" horiz-adv-x="685" 
d="M511 283h-338v-283h-74v710h487v-710h-75v283zM173 355h338v283h-338v-283z" />
    <glyph glyph-name="B.salt" horiz-adv-x="744" 
d="M99 710h379v-210h187v-500h-566v710zM173 638v-138h231v138h-231zM173 428v-356h418v356h-418z" />
    <glyph glyph-name="C.salt" horiz-adv-x="624" 
d="M591 638h-418v-566h418v-72h-492v710h492v-72z" />
    <glyph glyph-name="G.salt" horiz-adv-x="726" 
d="M664 400v-400h-565v710h528v-72h-454v-566h418v256h-209v72h282z" />
    <glyph glyph-name="J.salt" horiz-adv-x="402" 
d="M229 72v638h74v-710h-280v72h206z" />
    <glyph glyph-name="O.salt" horiz-adv-x="908" 
d="M99 710h710v-710h-710v710zM736 72v566h-563v-566h563z" />
    <glyph glyph-name="P.salt" horiz-adv-x="645" 
d="M586 283h-413v-283h-74v710h487v-427zM173 638v-283h339v283h-339z" />
    <glyph glyph-name="Q.salt" horiz-adv-x="908" 
d="M99 710h710v-710h-318v-184h-73v184h-319v710zM418 72v191h73v-191h245v566h-563v-566h245z" />
    <glyph glyph-name="S.salt" horiz-adv-x="571" 
d="M136 638v-138h362v-500h-436v72h363v357h-363v281h436v-72h-362z" />
    <glyph glyph-name="U.salt" horiz-adv-x="753" 
d="M99 710h74v-637h408v637h73v-710h-555v710z" />
    <glyph glyph-name="Y.salt" horiz-adv-x="675" 
d="M375 328v-328h-74v328h-241v382h74v-310h407v310h74v-382h-240z" />
    <glyph glyph-name="b.salt" horiz-adv-x="651" 
d="M149 500h423v-500h-493v710h70v-210zM149 432v-364h353v364h-353z" />
    <glyph glyph-name="c.salt" horiz-adv-x="475" 
d="M79 500h358v-68h-288v-364h288v-68h-358v500z" />
    <glyph glyph-name="d.salt" horiz-adv-x="651" 
d="M502 710h70v-710h-493v500h423v210zM149 432v-364h353v364h-353z" />
    <glyph glyph-name="f.salt" horiz-adv-x="338" 
d="M117 0v436h-98v64h98v210h207v-64h-138v-146h139v-64h-139v-436h-69z" />
    <glyph glyph-name="h.salt" horiz-adv-x="586" 
d="M79 710h70v-210h358v-500h-70v432h-288v-432h-70v710z" />
    <glyph glyph-name="i.salt" horiz-adv-x="228" 
d="M79 710h70v-98h-70v98zM79 500h70v-500h-70v500z" />
    <glyph glyph-name="j.salt" horiz-adv-x="236" 
d="M87 710h70v-98h-70v98zM157 -184h-177v64h107v620h70v-684z" />
    <glyph glyph-name="k.salt" horiz-adv-x="546" 
d="M423 226h-274v-226h-70v710h70v-417h204v207h70v-207h69v-293h-69v226z" />
    <glyph glyph-name="m.salt" horiz-adv-x="886" 
d="M79 0v500h728v-500h-70v432h-259v-432h-70v432h-259v-432h-70z" />
    <glyph glyph-name="n.salt" horiz-adv-x="586" 
d="M437 432h-288v-432h-70v500h428v-500h-70v432z" />
    <glyph glyph-name="o.salt" horiz-adv-x="658" 
d="M79 500h500v-500h-500v500zM509 68v364h-360v-364h360z" />
    <glyph glyph-name="p.salt" horiz-adv-x="651" 
d="M79 -184v684h493v-500h-423v-184h-70zM502 432h-353v-364h353v364z" />
    <glyph glyph-name="q.salt" horiz-adv-x="651" 
d="M502 -184v184h-423v500h493v-684h-70zM149 68h353v364h-353v-364z" />
    <glyph glyph-name="r.salt" horiz-adv-x="344" 
d="M79 500h250v-68h-180v-432h-70v500z" />
    <glyph glyph-name="s.salt" horiz-adv-x="504" 
d="M60 68h314v148h-314v284h384v-68h-314v-148h314v-284h-384v68z" />
    <glyph glyph-name="t.salt" horiz-adv-x="356" 
d="M117 0v436h-95v64h95v133h70v-133h142v-64h-142v-372h141v-64h-211z" />
    <glyph glyph-name="u.salt" horiz-adv-x="585" 
d="M79 500h69v-432h289v432h69v-500h-427v500z" />
    <glyph glyph-name="y.salt" horiz-adv-x="577" 
d="M50 500h70v-216h309v216h69v-684h-69v400h-379v284z" />
    <glyph glyph-name="A.ss02" horiz-adv-x="706" 
d="M334 710h273v-710h-74v201h-364l-95 -201h-79zM201 270h332v368h-158z" />
    </font>
</defs>
</svg>
